西西论坛

 找回密码
 立即注册
搜索

没有爱 Without.Love.1945.1080p.BluRay.x264-ORBS 12.24GB

[复制链接]
admin 发表于 2021-9-12 12:41:58 | 显示全部楼层 |阅读模式
没有爱 Without.Love.1945.1080p.BluRay.x264-ORBS 12.24GB                                                                                                                                                                                                                                                                                                                                                                                                                                                                                                                                        -->
帖子完整标题:没有爱 Without.Love.1945.1080p.BluRay.x264-ORBS 12.24GB



823ceceb2f7d7cda1d24be525382b234.jpg



◎译  名 没有爱
◎片  名 Without Love
◎年  代 1945
◎产  地 美国
◎类  别 喜剧 / 爱情
◎语  言 英语
◎上映日期 1945-03-22
◎豆瓣评分 6.9/10 from 66 users
◎豆瓣链接 
◎片  长 111 分钟
◎导  演 哈罗德·S·巴奎特 Harold S. Bucquet
◎编  剧 菲利普·巴里 Philip Barry / 唐纳德·奥格登·斯图尔特 Donald Ogden Stewart
◎主  演 斯宾塞·屈塞 Spencer Tracy
       凯瑟琳·赫本 Katharine Hepburn
       露西尔·鲍尔 Lucille Ball
       基南·怀恩 Keenan Wynn
       卡尔·埃斯蒙德 Carl Esmond
       乔治·钱德勒 George Chandler
       詹姆斯·弗莱文 James Flavin
       Sayre Dearing Sayre Dearing
       William Forrest William Forrest
       George Davis George Davis
       Joe Devlin Joe Devlin
       Garry Owen Garry Owen
       William Newell William Newell
       菲利克斯·布雷萨特 Felix Bressart
       Clancy Cooper Clancy Cooper
       唐纳德·柯蒂斯 Donald Curtis
       克拉伦斯·缪斯 Clarence Muse
       帕特里西亚·莫里森 Patricia Morison
       格洛丽亚·格雷厄姆 Gloria Grahame
       埃迪·艾克夫 Eddie Acuff
       查尔斯·阿恩特 Charles Arnt
       布鲁克斯·贝内迪克特 Brooks Benedict
       Wallis Clark Wallis Clark
       黑兹尔·布鲁克斯 Hazel Brooks
       海尼·康克林 Heinie Conklin
       弗兰科·科尔萨罗 Franco Corsaro
       Ralph Brooks Ralph Brooks

◎标  签 美国 | 凯瑟琳·赫本 | 史宾塞·屈赛 | 1940s | 1945 | KatharineHepburn | 爱情 | Katharine_Hepburn

◎简  介

  暂无相关剧情介绍
Video
ID                                       : 1
Format                                   : AVC
Format/Info                              : Advanced Video Codec
Format profile                           :
Format settings                          : CABAC / 5 Ref Frames
Format settings, CABAC                   : Yes
Format settings, Reference frames        : 5 frames
Codec ID                                 : V_MPEG4/ISO/AVC
Duration                                 : 1 h 50 min
Bit rate                                 : 15.5 Mb/s
Width                                    : 1 480 pixels
Height                                   : 1 080 pixels
Display aspect ratio                     : 1.370
Frame rate mode                          : Constant
Frame rate                               : 23.976 (24000/1001/189150) FPS
Color space                              : YUV
Chroma subsampling                       : 4:2:0
Bit depth                                : 8 bits
Scan type                                : Progressive
Bits/(Pixel*Frame)                       : 0.405
Stream size                              : 12.0 GiB (98%)
Writing library                          : x264 core 164 r3065 ae03d92
Encoding settings                        : cabac=1 / ref=5 / deblock=1:-3:-3 / analyse=0x3:0x133 / me=umh / subme=10 / psy=1 / psy_rd=1.20:0.00 / mixed_ref=1 / me_range=24 / chroma_me=1 / trellis=2 / 8x8dct=1 / cqm=0 / deadzone=21,11 / fast_pskip=0 / chroma_qp_offset=-2 / threads=24 / lookahead_threads=4 / sliced_threads=0 / nr=0 / decimate=0 / interlaced=0 / bluray_compat=0 / constrained_intra=0 / bframes=8 / b_pyramid=2 / b_adapt=2 / b_bias=0 / direct=3 / weightb=1 / open_gop=0 / weightp=2 / keyint=250 / keyint_min=23 / scenecut=40 / intra_refresh=0 / rc_lookahead=60 / rc=crf / mbtree=1 / crf=18.0 / qcomp=0.60 / qpmin=0 / qpmax=69 / qpstep=4 / ip_ratio=1.40 / aq=3:0.90
Default                                  : Yes
Forced                                   : No
Color range                              : Limited
Matrix coefficients                      : BT.709

Audio
ID                                       : 2
Format                                   : FLAC
Format/Info                              : Free Lossless Audio Codec
Codec ID                                 : A_FLAC
Duration                                 : 1 h 50 min
Bit rate mode                            : Variable
Bit rate                                 : 320 kb/s
Channel(s)                               : 2 channels
Channel layout                           : L R
Sampling rate                            : 48.0 kHz
Frame rate                               : 11.719 FPS (4096 SPF)
Bit depth                                : 16 bits
Compression mode                         : Lossless
Stream size                              : 253 MiB (2%)
Writing library                          : libFLAC 1.3.3 (UTC 2019-08-04)
Language                                 : English
Default                                  : Yes
Forced                                   : No

Text
ID                                       : 3
Format                                   : PGS
Muxing mode                              : zlib
Codec ID                                 : S_HDMV/PGS
Codec ID/Info                            : Picture based subtitle format used on BDs/HD-DVDs
Duration                                 : 1 h 50 min
Bit rate                                 : 48.7 kb/s
Count of elements                        : 4054
Stream size                              : 38.4 MiB (0%)
Title                                    : SDH
Language                                 : English
Default                                  : No
Forced                                   : No

Menu
00:00:00.000                             : Chapter 01
00:01:33.343                             : Chapter 02
00:05:13.897                             : Chapter 03
00:09:31.946                             : Chapter 04
00:13:56.461                             : Chapter 05
00:17:49.735                             : Chapter 06
00:21:34.710                             : Chapter 07
00:25:14.012                             : Chapter 08
00:31:39.272                             : Chapter 09
00:34:38.660                             : Chapter 10
00:39:51.598                             : Chapter 11
00:42:42.435                             : Chapter 12
00:47:57.208                             : Chapter 13
00:54:25.179                             : Chapter 14
00:57:38.872                             : Chapter 15
01:01:15.672                             : Chapter 16
01:05:44.274                             : Chapter 17
01:08:51.669                             : Chapter 18
01:12:03.861                             : Chapter 19
01:15:31.068                             : Chapter 20
01:19:23.759                             : Chapter 21
01:21:37.351                             : Chapter 22
01:26:21.301                             : Chapter 23
01:30:00.520                             : Chapter 24
01:33:42.116                             : Chapter 25
01:38:21.729                             : Chapter 26
01:42:05.244                             : Chapter 27
01:44:19.378                             : Chapter 28
01:47:45.376                             : Chapter 29
01:50:20.072                             : Chapter 30
01:50:30.040                             : Chapter 31

b686fc52621799af207d30942ab0a235.jpg





                                                                                                                                                                                                        
                                                                                                                                                                                                                                                                                                                                                                                                                                                                                                                                                                                                                                                                                                                                                                                                                                                        
a4a0fa3195db06889b6b8895d1fad285.torrent (16.02 KB, 下载次数: 0)

回复

使用道具 举报

小黑屋|西西论坛

本网站所有资源来自网络,如无意中侵犯了您的权益,请发邮件至 [email protected],立即清除相关链接

GMT+8, 2021-9-26 21:30 , Processed in 0.113872 second(s), 17 queries .

Powered by Discuz! X3.2

© 2001-2013 Comsenz Inc.

快速回复 返回顶部 返回列表