西西论坛

 找回密码
 立即注册
搜索

美式晚宴/美国心庞克情 Dinner.in.America.2020.720p.BluRay.x264-SCARE 5.66GB ... ...

[复制链接]
admin 发表于 7 天前 | 显示全部楼层 |阅读模式
美式晚宴/美国心庞克情 Dinner.in.America.2020.720p.BluRay.x264-SCARE 5.66GB                                                                                                                                                                                                                                                                                                                                                                                                                                                                                                                                        -->
帖子完整标题:美式晚宴/美国心庞克情 Dinner.in.America.2020.720p.BluRay.x264-SCARE 5.66GB



aa38cd709446846d0c97a524c2406113.jpg



◎译  名 美式晚宴/美国心庞克情(台)
◎片  名 Dinner in America
◎年  代 2020
◎产  地 美国
◎类  别 剧情 / 喜剧 / 音乐
◎语  言 英语
◎上映日期 2020-01-24(圣丹斯电影节)
◎豆瓣评分 /10 from 0 users
◎豆瓣链接 
◎片  长 108分钟
◎导  演 亚当·卡特·瑞迈尔 Adam Carter Rehmeier
◎主  演 凯尔·加尔纳 Kyle Gallner
       艾米莉· 斯凯格斯 Emily Skeggs
       莉·汤普森 Lea Thompson
       汉娜·马克斯 Hannah Marks
       玛丽·莱恩·莱杰斯库 Mary Lynn Rajskub
       格里芬·格鲁克 Griffin Gluck
       尼克·齐兰德 Nick Chinlund
       瑞恩·马尔伽里尼 Ryan Malgarini
       帕特·希利 Pat Healy
       尼科·格莱瑟姆 Nico Greetham
       大卫·佑 David Yow
       瑞奇·韦恩 Ricky Wayne
       珍妮弗·普雷迪格 Jennifer Prediger
        Sean Rogers
        Sidi Henderson

◎标  签 美国 | 喜剧 | 剧情 | 圣丹斯电影节 | Sundance | 2020 | 美國電影 | comedy

◎简  介

  A on-the-lam punk rocker and a young woman obsessed with his band unexpectedly fall in love and go on an epic journey together through America's decaying Midwestern suburbs.

◎获奖情况

  第36届圣丹斯电影节 ?(2020)
  评审团大奖剧情片(提名) 亚当·卡特·瑞迈尔
Video
ID                                       : 1
Format                                   : AVC
Format/Info                              : Advanced Video Codec
Format profile                           :
Format settings                          : CABAC / 12 Ref Frames
Format settings, CABAC                   : Yes
Format settings, Reference frames        : 12 frames
Codec ID                                 : V_MPEG4/ISO/AVC
Duration                                 : 1 h 48 min
Bit rate                                 : 6 745 kb/s
Width                                    : 1 280 pixels
Height                                   : 538 pixels
Display aspect ratio                     : 2.40:1
Frame rate mode                          : Constant
Frame rate                               : 23.976 (24000/1001/189150) FPS
Color space                              : YUV
Chroma subsampling                       : 4:2:0
Bit depth                                : 8 bits
Scan type                                : Progressive
Bits/(Pixel*Frame)                       : 0.409
Stream size                              : 5.10 GiB (90%)
Writing library                          : x264 core 164 r3065 ae03d92
Encoding settings                        : cabac=1 / ref=12 / deblock=1:-3:-3 / analyse=0x3:0x133 / me=umh / subme=10 / psy=1 / psy_rd=1.20:0.00 / mixed_ref=1 / me_range=24 / chroma_me=1 / trellis=2 / 8x8dct=1 / cqm=0 / deadzone=21,11 / fast_pskip=0 / chroma_qp_offset=-2 / threads=17 / lookahead_threads=2 / sliced_threads=0 / nr=0 / decimate=0 / interlaced=0 / bluray_compat=0 / constrained_intra=0 / bframes=8 / b_pyramid=2 / b_adapt=2 / b_bias=0 / direct=3 / weightb=1 / open_gop=0 / weightp=2 / keyint=250 / keyint_min=23 / scenecut=40 / intra_refresh=0 / rc_lookahead=60 / rc=crf / mbtree=1 / crf=18.0 / qcomp=0.60 / qpmin=0 / qpmax=69 / qpstep=4 / ip_ratio=1.40 / aq=3:0.90
Default                                  : Yes
Forced                                   : No
Color range                              : Limited
Matrix coefficients                      : BT.709

Audio #1
ID                                       : 2
Format                                   : AC-3
Format/Info                              : Audio Coding 3
Commercial name                          : Dolby Digital
Codec ID                                 : A_AC3
Duration                                 : 1 h 48 min
Bit rate mode                            : Constant
Bit rate                                 : 640 kb/s
Channel(s)                               : 6 channels
Channel layout                           : L R C LFE Ls Rs
Sampling rate                            : 48.0 kHz
Frame rate                               : 31.250 FPS (1536 SPF)
Compression mode                         : Lossy
Stream size                              : 495 MiB (9%)
Language                                 : English
Service kind                             : Complete Main
Default                                  : Yes
Forced                                   : No

Audio #2
ID                                       : 3
Format                                   : AAC LC
Format/Info                              : Advanced Audio Codec Low Complexity
Codec ID                                 : A_AAC-2
Duration                                 : 1 h 48 min
Bit rate                                 : 90.7 kb/s
Channel(s)                               : 2 channels
Channel layout                           : L R
Sampling rate                            : 48.0 kHz
Frame rate                               : 46.875 FPS (1024 SPF)
Compression mode                         : Lossy
Delay relative to video                  : 20 ms
Stream size                              : 70.2 MiB (1%)
Title                                    : Commentary
Language                                 : English
Default                                  : No
Forced                                   : No

Text
ID                                       : 4
Format                                   : PGS
Muxing mode                              : zlib
Codec ID                                 : S_HDMV/PGS
Codec ID/Info                            : Picture based subtitle format used on BDs/HD-DVDs
Duration                                 : 1 h 45 min
Bit rate                                 : 35.8 kb/s
Count of elements                        : 3260
Stream size                              : 26.9 MiB (0%)
Title                                    : SDH
Language                                 : English
Default                                  : No
Forced                                   : No

Menu
00:00:00.000                             : Chapter 01
00:07:34.329                             : Chapter 02
00:18:35.614                             : Chapter 03
00:27:25.769                             : Chapter 04
00:37:19.779                             : Chapter 05
00:46:59.900                             : Chapter 06
00:55:39.753                             : Chapter 07
01:03:07.993                             : Chapter 08
01:11:06.554                             : Chapter 09
01:19:30.265                             : Chapter 10
01:28:05.197                             : Chapter 11
01:37:32.305                             : Chapter 12
01:48:03.394                             : Chapter 13

6110efbc50bbc82e16f010510e0fe950.jpg





                                                                                                                                                                                                        
                                                                                                                                                                                                                                                                                                                                                                                                                                                                                                                                                                                                                                                                                                                                                                                                                                                        
3664dcc48d424be908632845f72b71b7.torrent (14.88 KB, 下载次数: 0)

回复

使用道具 举报

小黑屋|西西论坛

本网站所有资源来自网络,如无意中侵犯了您的权益,请发邮件至 [email protected],立即清除相关链接

GMT+8, 2021-9-19 09:25 , Processed in 0.141093 second(s), 17 queries .

Powered by Discuz! X3.2

© 2001-2013 Comsenz Inc.

快速回复 返回顶部 返回列表