西西论坛

 找回密码
 立即注册
搜索

庄园夫人/女领主 Lady.of.the.Manor.2021.1080p.BluRay.x264.DTS-HD.MA.5.1-MT 17.95G ...

[复制链接]
admin 发表于 7 天前 | 显示全部楼层 |阅读模式
庄园夫人/女领主 Lady.of.the.Manor.2021.1080p.BluRay.x264.DTS-HD.MA.5.1-MT 17.95GB                                                                                                                                                                                                                                                                                                                                                                                                                                                                                                                                        -->
帖子完整标题:庄园夫人/女领主 Lady.of.the.Manor.2021.1080p.BluRay.x264.DTS-HD.MA.5.1-MT 17.95GB



4f8f4aace1a88a07dcb80a7c931032aa.jpg



◎译  名 庄园夫人/女领主
◎片  名 Lady of the Manor
◎年  代 2021
◎产  地 美国
◎类  别 喜剧
◎语  言 英语
◎上映日期 2021-09-17(美国)
◎豆瓣评分 /10 from 0 users
◎豆瓣链接 
◎导  演 贾斯汀·朗 Justin Long /  Christian Long
◎编  剧 贾斯汀·朗 Justin Long /  Christian Long
◎主  演 梅兰妮·林斯基 Melanie Lynskey
       朱迪·格雷尔 Judy Greer
       贾斯汀·朗 Justin Long
       瑞恩·菲利普 Ryan Phillippe
       路易斯·古兹曼 Luis Guzmán
       帕特里克·杜菲 Patrick Duffy

◎简  介

  An aimless ne'er-do-well becomes a tour guide in a historic estate and winds up befriending the manor's resident ghost.
Video
ID                                       : 1
Format                                   : AVC
Format/Info                              : Advanced Video Codec
Format profile                           :
Format settings                          : CABAC / 4 Ref Frames
Format settings, CABAC                   : Yes
Format settings, Reference frames        : 4 frames
Codec ID                                 : V_MPEG4/ISO/AVC
Duration                                 : 1 h 36 min
Bit rate                                 : 22.9 Mb/s
Width                                    : 1 920 pixels
Height                                   : 1 038 pixels
Display aspect ratio                     : 1.85:1
Frame rate mode                          : Constant
Frame rate                               : 23.976 (24000/1001/189150) FPS
Color space                              : YUV
Chroma subsampling                       : 4:2:0
Bit depth                                : 8 bits
Scan type                                : Progressive
Bits/(Pixel*Frame)                       : 0.479
Stream size                              : 15.5 GiB (86%)
Writing library                          : x264 core 157 r2938 2b00a84  Mod
Encoding settings                        : cabac=1 / ref=4 / deblock=1:-3:-3 / analyse=0x3:0x133 / me=umh / subme=10 / psy=1 / psy_rd=1.05:0.00 / mixed_ref=1 / me_range=32 / chroma_me=1 / trellis=2 / 8x8dct=1 / cqm=0 / deadzone=21,11 / fast_pskip=0 / chroma_qp_offset=-2 / threads=12 / lookahead_threads=2 / sliced_threads=0 / nr=0 / decimate=0 / interlaced=0 / bluray_compat=0 / constrained_intra=0 / bframes=8 / b_pyramid=2 / b_adapt=2 / b_bias=0 / direct=3 / weightb=1 / open_gop=0 / weightp=2 / keyint=250 / keyint_min=24 / scenecut=40 / intra_refresh=0 / rc_lookahead=250 / rc=crf / mbtree=0 / crf=16.8 / qcomp=0.60 / qpmin=0 / qpmax=69 / qpstep=4 / vbv_maxrate=62500 / vbv_bufsize=78125 / crf_max=0.0 / nal_hrd=none / filler=0 / ip_ratio=1.30 / pb_ratio=1.20 / aq=3:0.80
Language                                 : English
Default                                  : Yes
Forced                                   : No
Color range                              : Limited
Color primaries                          : BT.709
Matrix coefficients                      : BT.709

Audio
ID                                       : 2
Format                                   : DTS XLL
Format/Info                              : Digital Theater Systems
Commercial name                          : DTS-HD Master Audio
Codec ID                                 : A_DTS
Duration                                 : 1 h 36 min
Bit rate mode                            : Variable
Bit rate                                 : 3 673 kb/s
Channel(s)                               : 6 channels
Channel layout                           : C L R Ls Rs LFE
Sampling rate                            : 48.0 kHz
Frame rate                               : 93.750 FPS (512 SPF)
Bit depth                                : 24 bits
Compression mode                         : Lossless
Stream size                              : 2.48 GiB (14%)
Language                                 : English
Default                                  : Yes
Forced                                   : No

Text #1
ID                                       : 3
Format                                   : UTF-8
Codec ID                                 : S_TEXT/UTF8
Codec ID/Info                            : UTF-8 Plain Text
Duration                                 : 1 h 35 min
Bit rate                                 : 82 b/s
Count of elements                        : 1619
Stream size                              : 57.6 KiB (0%)
Title                                    : SRT
Language                                 : English
Default                                  : Yes
Forced                                   : No

Text #2
ID                                       : 4
Format                                   : PGS
Muxing mode                              : zlib
Codec ID                                 : S_HDMV/PGS
Codec ID/Info                            : Picture based subtitle format used on BDs/HD-DVDs
Duration                                 : 1 h 35 min
Bit rate                                 : 53.1 kb/s
Count of elements                        : 3395
Stream size                              : 36.4 MiB (0%)
Language                                 : English
Default                                  : No
Forced                                   : No

Menu
00:00:00.000                             : Chapter 01
00:06:59.252                             : Chapter 02
00:12:20.573                             : Chapter 03
00:17:52.863                             : Chapter 04
00:22:24.260                             : Chapter 05
00:29:55.168                             : Chapter 06
00:32:31.700                             : Chapter 07
00:39:46.509                             : Chapter 08
00:47:05.823                             : Chapter 09
00:51:21.495                             : Chapter 10
00:56:30.178                             : Chapter 11
01:01:58.423                             : Chapter 12
01:08:24.767                             : Chapter 13
01:12:58.249                             : Chapter 14
01:17:55.129                             : Chapter 15
01:29:52.262                             : Chapter 16

3de7dc70d813af1f853811016f4f2736.png

[/url][/url]



                                                                                                                                                                                                        
                                                                                                                                                                                                                                                                                                                                                                                                                                                                                                                                                                                                                                                                                                                                                                                                                                                        
3a21c85aa8491e494f1a3146efb14858.torrent (23.09 KB, 下载次数: 0)

回复

使用道具 举报

小黑屋|西西论坛

本网站所有资源来自网络,如无意中侵犯了您的权益,请发邮件至 [email protected],立即清除相关链接

GMT+8, 2021-9-19 15:21 , Processed in 0.138777 second(s), 17 queries .

Powered by Discuz! X3.2

© 2001-2013 Comsenz Inc.

快速回复 返回顶部 返回列表