西西论坛

 找回密码
 立即注册
搜索

接住子弹 Catch.the.Bullet.2021.720p.BluRay.x264.DTS-MT 4.75GB

[复制链接]
admin 发表于 7 天前 | 显示全部楼层 |阅读模式
接住子弹 Catch.the.Bullet.2021.720p.BluRay.x264.DTS-MT 4.75GB                                                                                                                                                                                                                                                                                                                                                                                                                                                                                                                                        -->
帖子完整标题:接住子弹 Catch.the.Bullet.2021.720p.BluRay.x264.DTS-MT 4.75GB



448460fce980c85cf10e478ef3022e5c.jpg



◎译  名 接住子弹
◎片  名 Catch The Bullet
◎年  代 2021
◎产  地 美国
◎类  别 西部
◎语  言 英语
◎上映日期 2021-11-10(美国)
◎豆瓣评分 /10 from 0 users
◎豆瓣链接 

◎标  签 WK

◎简  介

  This powerful western starring Peter Facinelli (Twilight franchise) shows what happens when you push a good man too far. Britt MacMasters, a U.S. Marshal, returns from a mission to find his father (Tom Skerritt) wounded and his son, Chad, kidnapped by the outlaw Jed Blake. Hot on their trail, Britt forms a posse with a gunslinging deputy and a stoic Pawnee tracker. But both Jed and Britt tread dangerously close to the Red Desert’s Sioux territory, which poses a menace far greater than either can imagine.
Video
ID                                       : 1
Format                                   : AVC
Format/Info                              : Advanced Video Codec
Format profile                           :
Format settings                          : CABAC / 9 Ref Frames
Format settings, CABAC                   : Yes
Format settings, Reference frames        : 9 frames
Codec ID                                 : V_MPEG4/ISO/AVC
Duration                                 : 1 h 28 min
Bit rate                                 : 6 129 kb/s
Width                                    : 1 280 pixels
Height                                   : 720 pixels
Display aspect ratio                     : 16:9
Frame rate mode                          : Constant
Frame rate                               : 23.976 (24000/1001/189150) FPS
Color space                              : YUV
Chroma subsampling                       : 4:2:0
Bit depth                                : 8 bits
Scan type                                : Progressive
Bits/(Pixel*Frame)                       : 0.277
Stream size                              : 3.81 GiB (80%)
Writing library                          : x264 core 157 r2938 2b00a84  Mod
Encoding settings                        : cabac=1 / ref=9 / deblock=1:-3:-3 / analyse=0x3:0x133 / me=umh / subme=10 / psy=1 / psy_rd=1.05:0.00 / mixed_ref=1 / me_range=32 / chroma_me=1 / trellis=2 / 8x8dct=1 / cqm=0 / deadzone=21,11 / fast_pskip=0 / chroma_qp_offset=-2 / threads=12 / lookahead_threads=2 / sliced_threads=0 / nr=0 / decimate=0 / interlaced=0 / bluray_compat=0 / constrained_intra=0 / bframes=8 / b_pyramid=2 / b_adapt=2 / b_bias=0 / direct=3 / weightb=1 / open_gop=0 / weightp=2 / keyint=250 / keyint_min=24 / scenecut=40 / intra_refresh=0 / rc_lookahead=250 / rc=crf / mbtree=0 / crf=16.8 / qcomp=0.60 / qpmin=0 / qpmax=69 / qpstep=4 / vbv_maxrate=62500 / vbv_bufsize=78125 / crf_max=0.0 / nal_hrd=none / filler=0 / ip_ratio=1.30 / pb_ratio=1.20 / aq=3:0.80
Language                                 : English
Default                                  : Yes
Forced                                   : No
Color range                              : Limited
Color primaries                          : BT.709
Matrix coefficients                      : BT.709

Audio
ID                                       : 2
Format                                   : DTS
Format/Info                              : Digital Theater Systems
Codec ID                                 : A_DTS
Duration                                 : 1 h 28 min
Bit rate mode                            : Constant
Bit rate                                 : 1 509 kb/s
Channel(s)                               : 6 channels
Channel layout                           : C L R Ls Rs LFE
Sampling rate                            : 48.0 kHz
Frame rate                               : 93.750 FPS (512 SPF)
Bit depth                                : 24 bits
Compression mode                         : Lossy
Stream size                              : 960 MiB (20%)
Language                                 : English
Default                                  : Yes
Forced                                   : No

Text
ID                                       : 3
Format                                   : UTF-8
Codec ID                                 : S_TEXT/UTF8
Codec ID/Info                            : UTF-8 Plain Text
Duration                                 : 1 h 26 min
Bit rate                                 : 48 b/s
Count of elements                        : 1073
Stream size                              : 30.6 KiB (0%)
Title                                    : SRT
Language                                 : English
Default                                  : Yes
Forced                                   : No

Menu
00:00:00.000                             : Chapter 01
00:04:27.267                             : Chapter 02
00:10:39.722                             : Chapter 03
00:16:56.182                             : Chapter 04
00:24:08.238                             : Chapter 05
00:29:26.306                             : Chapter 06
00:35:11.109                             : Chapter 07
00:39:51.180                             : Chapter 08
00:44:43.556                             : Chapter 09
00:52:07.333                             : Chapter 10
00:56:25.674                             : Chapter 11
01:01:23.013                             : Chapter 12
01:07:29.045                             : Chapter 13
01:12:24.757                             : Chapter 14
01:17:10.793                             : Chapter 15
01:24:37.906                             : Chapter 16

b97f61ba964dd33900f867fb665fe1c6.png

[/url]87407e9f89b90989aa2a799157f842a3.png

[/url]845d004b759d5322c7f6c78d5414fd96.png

[/url]



                                                                                                                                                                                                        
                                                                                                                                                                                                                                                                                                                                                                                                                                                                                                                                                                                                                                                                                                                                                                                                                                                        
6ffab6c653dfb3ceb6b9a9ae8ab2d890.torrent (24.36 KB, 下载次数: 0)

回复

使用道具 举报

小黑屋|西西论坛

本网站所有资源来自网络,如无意中侵犯了您的权益,请发邮件至 [email protected],立即清除相关链接

GMT+8, 2021-9-19 10:51 , Processed in 3.233096 second(s), 17 queries .

Powered by Discuz! X3.2

© 2001-2013 Comsenz Inc.

快速回复 返回顶部 返回列表