西西论坛

 找回密码
 立即注册
搜索

宝贝老板2/宝贝老板:家大业大 The.Boss.Baby.Family.Business.2021.1080p.BluRay.x264 ...

[复制链接]
admin 发表于 7 天前 | 显示全部楼层 |阅读模式
宝贝老板2/宝贝老板:家大业大 The.Boss.Baby.Family.Business.2021.1080p.BluRay.x264.DTS-HD.MA.7                                                                                                                                                                                                                                                                                                                                                                                                                                                                                                                                        -->
帖子完整标题:宝贝老板2/宝贝老板:家大业大 The.Boss.Baby.Family.Business.2021.1080p.BluRay.x264.DTS-HD.MA.7.1-MT 10.67GB



6103a1a112b3e773a2f71a6a246ed9e6.jpg



◎译  名 宝贝老板2/宝贝老板:家大业大(台)/宝贝老板2:家族企业/波士BB 2世祖(港)
◎片  名 The Boss Baby: Family Business
◎年  代 2021
◎产  地 美国
◎类  别 喜剧 / 动画
◎语  言 英语
◎上映日期 2021-07-02(美国/美国网络)
◎豆瓣评分 6.7/10 from 5773 users
◎豆瓣链接 
◎片  长 107分钟
◎导  演 汤姆·麦格拉思 Tom McGrath
◎编  剧 玛拉·弗雷齐 Marla Frazee / 迈克尔·麦库勒斯 Michael McCullers
◎主  演 亚历克·鲍德温 Alec Baldwin
       詹姆斯·麦斯登 James Marsden
       艾米·塞德丽丝 Amy Sedaris
       阿丽亚娜·格林布拉特 Ariana Greenblatt
       杰夫·高布伦 Jeff Goldblum
       伊娃·朗格利亚 Eva Longoria
       詹姆斯·麦格拉思 James McGrath
       吉米·坎摩尔 Jimmy Kimmel
       丽莎·库卓 Lisa Kudrow
       拉斐尔·亚历杭德罗 Raphael Alejandro
       塞雷妮蒂·瑞恩·布朗 Serenity Reign Brown
       大卫·索伦 David Soren
       詹姆斯·雷恩 James Ryan
       戴维·P·史密斯 David P. Smith
       汤姆·麦格拉思 Tom McGrath
       沃尔特·道恩 Walt Dohrn
       阿普里尔·劳伦斯 April Lawrence
       迈尔斯·克里斯托弗·巴克什 Miles Christopher Bakshi
       琳娜·泽格 Lynnanne Zager

◎标  签 动画 | 喜剧 | 美国 | 搞笑 | 小宝宝 | 兄弟 | 萌 | 卖萌

◎简  介

  设定在首部多年之后,邓普顿兄弟蒂姆和泰德长大成人,两人关系也逐渐疏远。蒂姆已婚已育,泰德是对冲基金的首席执行官,两人将因为一个有着先进方式和积极进取态度的新任“宝贝老板”重新联系在一起,激发出新的家族企业。
  
  蒂姆和有“超级妈妈”之称的妻子卡罗尔及异常聪慧的7岁女儿塔比莎、刚出生超级可爱的婴儿蒂娜住在郊区,塔比莎是一所有威望的教育机构的尖子生,将叔叔泰德视为偶像,想成为他那样的人,但蒂姆担心她太过用功,导致无法过一个正常的童年。当蒂娜作为宝贝集团最高机密特工的真实身份曝光,目的是为了揭开塔比莎学校及其神秘创始人阿姆斯特朗博士背后的黑暗秘密时,邓普顿兄弟将以一种意想不到的方式重聚,两人重新审视家庭的意义,明白什么才是最重要的。
Video
ID                                       : 1
Format                                   : AVC
Format/Info                              : Advanced Video Codec
Format profile                           :
Format settings                          : CABAC / 5 Ref Frames
Format settings, CABAC                   : Yes
Format settings, Reference frames        : 5 frames
Codec ID                                 : V_MPEG4/ISO/AVC
Duration                                 : 1 h 47 min
Bit rate                                 : 9 637 kb/s
Width                                    : 1 920 pixels
Height                                   : 804 pixels
Display aspect ratio                     : 2.40:1
Frame rate mode                          : Constant
Frame rate                               : 23.976 (24000/1001/189150) FPS
Color space                              : YUV
Chroma subsampling                       : 4:2:0
Bit depth                                : 8 bits
Scan type                                : Progressive
Bits/(Pixel*Frame)                       : 0.260
Stream size                              : 7.22 GiB (68%)
Writing library                          : x264 core 157 r2938 2b00a84  Mod
Encoding settings                        : cabac=1 / ref=5 / deblock=1:-3:-3 / analyse=0x3:0x133 / me=umh / subme=10 / psy=1 / psy_rd=1.05:0.00 / mixed_ref=1 / me_range=32 / chroma_me=1 / trellis=2 / 8x8dct=1 / cqm=0 / deadzone=21,11 / fast_pskip=0 / chroma_qp_offset=-2 / threads=12 / lookahead_threads=2 / sliced_threads=0 / nr=0 / decimate=0 / interlaced=0 / bluray_compat=0 / constrained_intra=0 / bframes=8 / b_pyramid=2 / b_adapt=2 / b_bias=0 / direct=3 / weightb=1 / open_gop=0 / weightp=2 / keyint=250 / keyint_min=24 / scenecut=40 / intra_refresh=0 / rc_lookahead=250 / rc=crf / mbtree=0 / crf=16.8 / qcomp=0.60 / qpmin=0 / qpmax=69 / qpstep=4 / vbv_maxrate=62500 / vbv_bufsize=78125 / crf_max=0.0 / nal_hrd=none / filler=0 / ip_ratio=1.30 / pb_ratio=1.20 / aq=3:0.80
Language                                 : English
Default                                  : Yes
Forced                                   : No
Color range                              : Limited
Color primaries                          : BT.709
Matrix coefficients                      : BT.709

Audio
ID                                       : 2
Format                                   : DTS XLL
Format/Info                              : Digital Theater Systems
Commercial name                          : DTS-HD Master Audio
Codec ID                                 : A_DTS
Duration                                 : 1 h 47 min
Bit rate mode                            : Variable
Bit rate                                 : 4 574 kb/s
Channel(s)                               : 8 channels
Channel layout                           : C L R LFE Lb Rb Lss Rss
Sampling rate                            : 48.0 kHz
Frame rate                               : 93.750 FPS (512 SPF)
Bit depth                                : 24 bits
Compression mode                         : Lossless
Stream size                              : 3.43 GiB (32%)
Language                                 : English
Default                                  : Yes
Forced                                   : No

Text #1
ID                                       : 3
Format                                   : UTF-8
Codec ID                                 : S_TEXT/UTF8
Codec ID/Info                            : UTF-8 Plain Text
Duration                                 : 1 h 40 min
Bit rate                                 : 82 b/s
Count of elements                        : 2172
Stream size                              : 61.0 KiB (0%)
Title                                    : SRT
Language                                 : English
Default                                  : Yes
Forced                                   : No

Text #2
ID                                       : 4
Format                                   : PGS
Muxing mode                              : zlib
Codec ID                                 : S_HDMV/PGS
Codec ID/Info                            : Picture based subtitle format used on BDs/HD-DVDs
Duration                                 : 1 h 40 min
Bit rate                                 : 68.8 kb/s
Count of elements                        : 4920
Stream size                              : 49.6 MiB (0%)
Language                                 : English
Default                                  : No
Forced                                   : No

Menu
00:00:00.000                             : Chapter 01
00:04:18.383                             : Chapter 02
00:09:50.673                             : Chapter 03
00:13:43.364                             : Chapter 04
00:19:51.816                             : Chapter 05
00:24:55.119                             : Chapter 06
00:29:12.125                             : Chapter 07
00:34:22.018                             : Chapter 08
00:38:09.245                             : Chapter 09
00:44:36.299                             : Chapter 10
00:51:25.124                             : Chapter 11
01:00:47.853                             : Chapter 12
01:04:54.474                             : Chapter 13
01:08:08.209                             : Chapter 14
01:13:27.403                             : Chapter 15
01:18:38.172                             : Chapter 16
01:22:44.418                             : Chapter 17
01:27:13.437                             : Chapter 18
01:35:06.701                             : Chapter 19
01:38:13.721                             : Chapter 20

2a131bffab965b1c2a56fe2f8afa8e43.png

[/url]95fe0339a2e45110f7e11aace639427c.png

[/url]5049a8e358c5e4935863d4a013b18a66.png

[/url]



                                                                                                                                                                                                        
                                                                                                                                                                                                                                                                                                                                                                                                                                                                                                                                                                                                                                                                                                                                                                                                                                                        
80dd18881caa73e26e4f2dc59ee1aa10.torrent (14 KB, 下载次数: 0)

回复

使用道具 举报

小黑屋|西西论坛

本网站所有资源来自网络,如无意中侵犯了您的权益,请发邮件至 [email protected],立即清除相关链接

GMT+8, 2021-9-19 16:33 , Processed in 0.132187 second(s), 17 queries .

Powered by Discuz! X3.2

© 2001-2013 Comsenz Inc.

快速回复 返回顶部 返回列表