西西论坛

 找回密码
 立即注册
搜索

无人机战场 Battle.Drone.2018.1080p.BluRay.x264.DTS-FGT 8.03GB

[复制链接]
admin 发表于 2021-9-11 12:27:35 | 显示全部楼层 |阅读模式
无人机战场 Battle.Drone.2018.1080p.BluRay.x264.DTS-FGT 8.03GB                                                                                                                                                                                                                                                                                                                                                                                                                                                                                                                                        -->
帖子完整标题:无人机战场 Battle.Drone.2018.1080p.BluRay.x264.DTS-FGT 8.03GB



42e3c3d03f44a0d3cd78f9e797fc1924.jpg



◎译  名 无人机战场/Hunted: Battle of the Drones
◎片  名 Battle Drone
◎年  代 2017
◎产  地 美国
◎类  别 动作
◎语  言 英语
◎上映日期 
◎豆瓣评分 4.3/10 from 367 users
◎豆瓣链接 
◎片  长 93分钟

◎标  签 科幻 | 动作 | 美国 | 战争 | 2017 | 美国电影 | 美国.....烂片 | 欧美版抗日神剧

◎简  介

  一组老练的雇佣军发现自己被美国政府出卖,被迫卷入战斗…
Video
ID                                       : 1
Format                                   : AVC
Format/Info                              : Advanced Video Codec
Format profile                           :
Format settings                          : CABAC / 4 Ref Frames
Format settings, CABAC                   : Yes
Format settings, Reference frames        : 4 frames
Codec ID                                 : V_MPEG4/ISO/AVC
Duration                                 : 1 h 33 min
Bit rate                                 : 11.5 Mb/s
Width                                    : 1 920 pixels
Height                                   : 804 pixels
Display aspect ratio                     : 2.40:1
Frame rate mode                          : Constant
Frame rate                               : 23.976 (24000/1001/189150) FPS
Color space                              : YUV
Chroma subsampling                       : 4:2:0
Bit depth                                : 8 bits
Scan type                                : Progressive
Bits/(Pixel*Frame)                       : 0.311
Stream size                              : 7.52 GiB (94%)
Writing library                          : x264 core 148 r2748 97eaef2
Encoding settings                        : cabac=1 / ref=4 / deblock=1:-2:-2 / analyse=0x3:0x113 / me=umh / subme=9 / psy=1 / psy_rd=1.00:0.15 / mixed_ref=1 / me_range=16 / chroma_me=1 / trellis=2 / 8x8dct=1 / cqm=0 / deadzone=21,11 / fast_pskip=1 / chroma_qp_offset=-3 / threads=24 / lookahead_threads=3 / sliced_threads=0 / nr=0 / decimate=1 / interlaced=0 / bluray_compat=0 / constrained_intra=0 / bframes=3 / b_pyramid=2 / b_adapt=1 / b_bias=0 / direct=3 / weightb=1 / open_gop=0 / weightp=2 / keyint=250 / keyint_min=25 / scenecut=40 / intra_refresh=0 / rc_lookahead=50 / rc=2pass / mbtree=1 / bitrate=11500 / ratetol=1.0 / qcomp=0.60 / qpmin=0 / qpmax=69 / qpstep=4 / cplxblur=20.0 / qblur=0.5 / vbv_maxrate=31250 / vbv_bufsize=31250 / nal_hrd=none / filler=0 / ip_ratio=1.40 / aq=1:1.00
Language                                 : English
Default                                  : Yes
Forced                                   : No

Audio
ID                                       : 2
ID in the original source medium         : 4353 (0x1101)
Format                                   : DTS
Format/Info                              : Digital Theater Systems
Codec ID                                 : A_DTS
Duration                                 : 1 h 33 min
Bit rate mode                            : Constant
Bit rate                                 : 768 kb/s
Channel(s)                               : 6 channels
Channel layout                           : C L R Ls Rs LFE
Sampling rate                            : 48.0 kHz
Frame rate                               : 93.750 FPS (512 SPF)
Bit depth                                : 16 bits
Compression mode                         : Lossy
Stream size                              : 515 MiB (6%)
Title                                    : DTS 5.1
Language                                 : English
Default                                  : No
Forced                                   : No
Original source medium                   : Blu-ray

Text
ID                                       : 3
Format                                   : UTF-8
Codec ID                                 : S_TEXT/UTF8
Codec ID/Info                            : UTF-8 Plain Text
Duration                                 : 1 h 31 min
Bit rate                                 : 48 b/s
Count of elements                        : 1181
Stream size                              : 32.5 KiB (0%)
Language                                 : English
Default                                  : Yes
Forced                                   : No

Menu
00:00:00.000                             : Chapter 01
00:07:45.923                             : Chapter 02
00:14:19.817                             : Chapter 03
00:21:47.347                             : Chapter 04
00:27:17.594                             : Chapter 05
00:37:52.895                             : Chapter 06
00:48:56.099                             : Chapter 07
00:57:18.685                             : Chapter 08
01:03:02.779                             : Chapter 09
01:11:37.042                             : Chapter 10
01:16:52.691                             : Chapter 11
01:29:27.653                             : Chapter 12

029a68633c5306e154710791236104a7.png

[/url]9d00f42d734836b64eb742ecabb3b41c.png

[/url]dc9f90146397d8c78e29ac5703bd2761.png

[/url]



                                                                                                                                                                                                        
                                                                                                                                                                                                                                                                                                                                                                                                                                                                                                                                                                                                                                                                                                                                                                                                                                                        
e61d1838511596963bf0c7b35779624a.torrent (20.68 KB, 下载次数: 0)

回复

使用道具 举报

小黑屋|西西论坛

本网站所有资源来自网络,如无意中侵犯了您的权益,请发邮件至 [email protected],立即清除相关链接

GMT+8, 2021-9-19 14:59 , Processed in 0.113382 second(s), 17 queries .

Powered by Discuz! X3.2

© 2001-2013 Comsenz Inc.

快速回复 返回顶部 返回列表