西西论坛

 找回密码
 立即注册
搜索

小心身后/小心背后 Behind.You.2020.1080p.BluRay.x264.DTS-FGT 7.39GB

[复制链接]
admin 发表于 2021-9-11 12:27:27 | 显示全部楼层 |阅读模式
小心身后/小心背后 Behind.You.2020.1080p.BluRay.x264.DTS-FGT 7.39GB                                                                                                                                                                                                                                                                                                                                                                                                                                                                                                                                        -->
帖子完整标题:小心身后/小心背后 Behind.You.2020.1080p.BluRay.x264.DTS-FGT 7.39GB



e5d59bdc00377e5366807549d025e8cd.jpg



◎译  名 小心身后/小心背后
◎片  名 Behind You
◎年  代 2020
◎产  地 美国
◎类  别 恐怖
◎语  言 英语
◎上映日期 2020-04-17(美国)
◎豆瓣评分 4.3/10 from 219 users
◎豆瓣链接 
◎片  长 86分钟
◎主  演 艾迪·米勒 Addy Miller
       伊丽莎白·伯克纳 Elizabeth Birkner
       菲利普·布罗迪 Philip Brodie
       艾梅-林恩-查德威克 Aimee-Lynn Chadwick
       Charan Prabhakar Charan Prabhakar
        James C. Morris

◎标  签 恐怖 | 美国 | 惊悚 | 2020 | 恶灵 | 美国电影 | 镜子 | 附体

◎简  介

  Two young sisters find that all the mirrors in their estranged aunt's house are covered or hidden. When one of them happens upon a mirror in the basement, she unknowingly releases a malicious demon.
Video
ID                                       : 1
Format                                   : AVC
Format/Info                              : Advanced Video Codec
Format profile                           :
Format settings                          : CABAC / 4 Ref Frames
Format settings, CABAC                   : Yes
Format settings, Reference frames        : 4 frames
Codec ID                                 : V_MPEG4/ISO/AVC
Duration                                 : 1 h 26 min
Bit rate                                 : 11.5 Mb/s
Width                                    : 1 920 pixels
Height                                   : 812 pixels
Display aspect ratio                     : 2.35:1
Frame rate mode                          : Constant
Frame rate                               : 23.976 (24000/1001/189150) FPS
Color space                              : YUV
Chroma subsampling                       : 4:2:0
Bit depth                                : 8 bits
Scan type                                : Progressive
Bits/(Pixel*Frame)                       : 0.308
Stream size                              : 6.92 GiB (94%)
Writing library                          : x264 core 148 r2748 97eaef2
Encoding settings                        : cabac=1 / ref=4 / deblock=1:-2:-2 / analyse=0x3:0x113 / me=umh / subme=9 / psy=1 / psy_rd=1.00:0.15 / mixed_ref=1 / me_range=16 / chroma_me=1 / trellis=2 / 8x8dct=1 / cqm=0 / deadzone=21,11 / fast_pskip=1 / chroma_qp_offset=-3 / threads=24 / lookahead_threads=3 / sliced_threads=0 / nr=0 / decimate=1 / interlaced=0 / bluray_compat=0 / constrained_intra=0 / bframes=3 / b_pyramid=2 / b_adapt=1 / b_bias=0 / direct=3 / weightb=1 / open_gop=0 / weightp=2 / keyint=250 / keyint_min=25 / scenecut=40 / intra_refresh=0 / rc_lookahead=50 / rc=2pass / mbtree=1 / bitrate=11500 / ratetol=1.0 / qcomp=0.60 / qpmin=0 / qpmax=69 / qpstep=4 / cplxblur=20.0 / qblur=0.5 / vbv_maxrate=31250 / vbv_bufsize=31250 / nal_hrd=none / filler=0 / ip_ratio=1.40 / aq=1:1.00
Language                                 : English
Default                                  : Yes
Forced                                   : No

Audio
ID                                       : 2
ID in the original source medium         : 4353 (0x1101)
Format                                   : DTS
Format/Info                              : Digital Theater Systems
Codec ID                                 : A_DTS
Duration                                 : 1 h 26 min
Bit rate mode                            : Constant
Bit rate                                 : 768 kb/s
Channel(s)                               : 6 channels
Channel layout                           : C L R Ls Rs LFE
Sampling rate                            : 48.0 kHz
Frame rate                               : 93.750 FPS (512 SPF)
Bit depth                                : 16 bits
Compression mode                         : Lossy
Stream size                              : 473 MiB (6%)
Title                                    : DTS 5.1
Language                                 : English
Default                                  : No
Forced                                   : No
Original source medium                   : Blu-ray

Text
ID                                       : 3
Format                                   : UTF-8
Codec ID                                 : S_TEXT/UTF8
Codec ID/Info                            : UTF-8 Plain Text
Duration                                 : 1 h 20 min
Bit rate                                 : 30 b/s
Count of elements                        : 768
Stream size                              : 17.8 KiB (0%)
Language                                 : English
Default                                  : Yes
Forced                                   : No

Menu
00:00:00.000                             : Chapter 01
00:03:14.360                             : Chapter 02
00:13:00.362                             : Chapter 03
00:21:43.593                             : Chapter 04
00:30:31.204                             : Chapter 05
00:38:11.205                             : Chapter 06
00:43:20.347                             : Chapter 07
00:49:06.401                             : Chapter 08
00:58:28.671                             : Chapter 09
01:03:06.365                             : Chapter 10
01:13:03.921                             : Chapter 11
01:22:16.640                             : Chapter 12

e8899641db6b422cc2d40ef327635b92.png

[/url]28b1d1c6781b9386edfe4944847cef4a.png

[/url]c6f386d05803eac48cab28b6043611d8.png

[/url]



                                                                                                                                                                                                        
                                                                                                                                                                                                                                                                                                                                                                                                                                                                                                                                                                                                                                                                                                                                                                                                                                                        
a11b26ad272741d19fa0d3eabdf2edfa.torrent (19.08 KB, 下载次数: 0)

回复

使用道具 举报

小黑屋|西西论坛

本网站所有资源来自网络,如无意中侵犯了您的权益,请发邮件至 [email protected],立即清除相关链接

GMT+8, 2021-9-26 21:25 , Processed in 0.111937 second(s), 17 queries .

Powered by Discuz! X3.2

© 2001-2013 Comsenz Inc.

快速回复 返回顶部 返回列表