西西论坛

 找回密码
 立即注册
搜索

贫民窟的冠军队/西洋棋战队 Critical.Thinking.2020.720p.BluRay.x264.DTS-FGT 5.43GB ...

[复制链接]
admin 发表于 2021-9-10 10:10:40 | 显示全部楼层 |阅读模式
贫民窟的冠军队/西洋棋战队 Critical.Thinking.2020.720p.BluRay.x264.DTS-FGT 5.43GB                                                                                                                                                                                                                                                                                                                                                                                                                                                                                                                                        -->
帖子完整标题:贫民窟的冠军队/西洋棋战队 Critical.Thinking.2020.720p.BluRay.x264.DTS-FGT 5.43GB



9b173bd7630bfbda32bb5a7d88cde652.jpg



◎译  名 贫民窟的冠军队/西洋棋战队/高校棋迹(台)
◎片  名 Critical Thinking
◎年  代 2020
◎产  地 美国
◎类  别 剧情
◎语  言 英语,西班牙语
◎上映日期 2020-09-04(美国)
◎豆瓣评分 /10 from 0 users
◎豆瓣链接 
◎片  长 117分钟
◎导  演 约翰·雷吉扎莫 John Leguizamo
◎编  剧 蒂托·蒙蒂尔 Dito Montiel
◎主  演 约翰·雷吉扎莫 John Leguizamo
       雷切尔·贝·琼斯 Rachel Bay Jones
       迈克尔·肯尼斯·威廉姆斯 Michael Kenneth Williams
       小豪尔赫·兰登伯格 Jorge Lendeborg Jr.
       安吉尔·拜斯马克·库瑞尔 Angel Bismark Curiel
       拉美西斯·希梅内斯 Ramses Jimenez
       托德·艾伦·德金 Todd Allen Durkin
       大卫·贝兹 Dave Baez
       鲁宾·A·布朗 Ruben E. A. Brown
       卡洛斯·格雷罗 Carlos Guerrero
        David W. LeBlanc
       David Brownstein David Brownstein
        Corwin Brown

◎标  签 美国 | 剧情 | 青春 | 成長 | 西洋棋 | 校園 | 2020 | 美國

◎简  介

  The true story of the Miami Jackson High School chess team which was the first inner city team to win the U.S. National Chess Championship.
Video
ID                                       : 1
Format                                   : AVC
Format/Info                              : Advanced Video Codec
Format profile                           :
Format settings                          : CABAC / 4 Ref Frames
Format settings, CABAC                   : Yes
Format settings, Reference frames        : 4 frames
Codec ID                                 : V_MPEG4/ISO/AVC
Duration                                 : 1 h 50 min
Bit rate                                 : 5 500 kb/s
Width                                    : 1 280 pixels
Height                                   : 534 pixels
Display aspect ratio                     : 2.40:1
Original display aspect ratio            : 2.40:1
Frame rate mode                          : Constant
Frame rate                               : 23.976 (24000/1001/189150) FPS
Color space                              : YUV
Chroma subsampling                       : 4:2:0
Bit depth                                : 8 bits
Scan type                                : Progressive
Bits/(Pixel*Frame)                       : 0.336
Stream size                              : 4.26 GiB (78%)
Writing library                          : x264 core 148 r2795M aaa9aa8
Encoding settings                        : cabac=1 / ref=4 / deblock=1:-2:-2 / analyse=0x3:0x113 / me=umh / subme=9 / psy=1 / psy_rd=1.00:0.15 / mixed_ref=1 / me_range=16 / chroma_me=1 / trellis=2 / 8x8dct=1 / cqm=0 / deadzone=21,11 / fast_pskip=1 / chroma_qp_offset=-3 / threads=24 / lookahead_threads=3 / sliced_threads=0 / nr=0 / decimate=1 / interlaced=0 / bluray_compat=0 / constrained_intra=0 / bframes=3 / b_pyramid=2 / b_adapt=1 / b_bias=0 / direct=3 / weightb=1 / open_gop=0 / weightp=2 / keyint=250 / keyint_min=25 / scenecut=40 / intra_refresh=0 / rc_lookahead=50 / rc=2pass / mbtree=1 / bitrate=5500 / ratetol=1.0 / qcomp=0.60 / qpmin=0 / qpmax=69 / qpstep=4 / cplxblur=20.0 / qblur=0.5 / vbv_maxrate=31250 / vbv_bufsize=31250 / nal_hrd=none / filler=0 / ip_ratio=1.40 / aq=1:1.00
Language                                 : English
Default                                  : Yes
Forced                                   : No

Audio
ID                                       : 2
Format                                   : DTS
Format/Info                              : Digital Theater Systems
Codec ID                                 : A_DTS
Duration                                 : 1 h 50 min
Bit rate mode                            : Constant
Bit rate                                 : 1 510 kb/s
Channel(s)                               : 6 channels
Channel layout                           : C L R Ls Rs LFE
Sampling rate                            : 48.0 kHz
Frame rate                               : 93.750 FPS (512 SPF)
Bit depth                                : 24 bits
Compression mode                         : Lossy
Stream size                              : 1.17 GiB (22%)
Title                                    : DTS 5.1
Language                                 : English
Default                                  : Yes
Forced                                   : No

Text
ID                                       : 3
Format                                   : UTF-8
Codec ID                                 : S_TEXT/UTF8
Codec ID/Info                            : UTF-8 Plain Text
Duration                                 : 1 h 47 min
Bit rate                                 : 78 b/s
Count of elements                        : 1849
Stream size                              : 62.0 KiB (0%)
Title                                    : SRT
Language                                 : English
Default                                  : No
Forced                                   : No

Menu
00:00:00.083                             : :Chapter 01
00:04:59.882                             : :Chapter 02
00:10:00.182                             : :Chapter 03
00:14:59.982                             : :Chapter 04
00:20:00.282                             : :Chapter 05
00:25:00.081                             : :Chapter 06
00:30:00.381                             : :Chapter 07
00:35:00.681                             : :Chapter 08
00:40:00.481                             : :Chapter 09
00:45:00.781                             : :Chapter 10
00:50:00.580                             : :Chapter 11
00:55:00.880                             : :Chapter 12
01:00:01.180                             : :Chapter 13
01:05:00.980                             : :Chapter 14
01:10:01.280                             : :Chapter 15
01:15:01.079                             : :Chapter 16
01:20:01.379                             : :Chapter 17
01:25:01.179                             : :Chapter 18
01:30:01.479                             : :Chapter 19
01:35:01.779                             : :Chapter 20
01:40:01.578                             : :Chapter 21
01:45:01.878                             : :Chapter 22
01:50:01.678                             : :Chapter 23

1c651c7990df13a538ddb2d60bce3b8a.png

[/url]610ea2d574436b5b0c44d17079890695.png

[/url]



                                                                                                                                                                                                        
                                                                                                                                                                                                                                                                                                                                                                                                                                                                                                                                                                                                                                                                                                                                                                                                                                                        
9c355eebbe40687d65c7a7f93c049086.torrent (14.18 KB, 下载次数: 0)

回复

使用道具 举报

小黑屋|西西论坛

本网站所有资源来自网络,如无意中侵犯了您的权益,请发邮件至 [email protected],立即清除相关链接

GMT+8, 2021-9-19 09:15 , Processed in 0.157292 second(s), 17 queries .

Powered by Discuz! X3.2

© 2001-2013 Comsenz Inc.

快速回复 返回顶部 返回列表