西西论坛

 找回密码
 立即注册
搜索

进化危机/地球再发育 Evolution.2001.720p.BluRay.x264-VETO 5.93GB

[复制链接]
admin 发表于 2021-9-10 10:10:32 | 显示全部楼层 |阅读模式
进化危机/地球再发育 Evolution.2001.720p.BluRay.x264-VETO 5.93GB                                                                                                                                                                                                                                                                                                                                                                                                                                                                                                                                        -->
帖子完整标题:进化危机/地球再发育 Evolution.2001.720p.BluRay.x264-VETO 5.93GB



c512370e09bdef36e7120f55d25c7b44.jpg



◎译  名 进化危机/地球再发育(港)/超速度进化/进化/进化特区(台)
◎片  名 Evolution
◎年  代 2001
◎产  地 美国
◎类  别 喜剧 / 科幻
◎语  言 英语
◎上映日期 2001-06-08
◎豆瓣评分 6.8/10 from 16542 users
◎豆瓣链接 
◎片  长 101 分钟
◎导  演 伊万·雷特曼 Ivan Reitman
◎编  剧 唐·雅各比 Don Jakoby / 大卫·戴尔蒙德 David Diamond
◎主  演 大卫·杜楚尼 David Duchovny
       朱丽安·摩尔 Julianne Moore
       奥兰多·琼斯 Orlando Jones
       西恩·威廉·斯科特 Seann William Scott
       泰德·拉文 Ted Levine
       伊桑·苏普利 Ethan Suplee
       迈克尔·博维尔 Michael Bower
       派特·基尔贝恩 Pat Kilbane
       泰·布利尔 Ty Burrell
       丹·艾克罗伊德 Dan Aykroyd
       凯瑟琳·汤 Katharine Towne
       格里高利·伊齐恩 Gregory Itzin
       萨拉·西尔弗曼 Sarah Silverman
       理查德·莫尔 Richard Moll
       迈克尔·麦克格雷迪 Michael McGrady
       斯蒂芬·吉尔伯恩 Steven Gilborn
       韦恩·杜瓦尔 Wayne Duvall
       迈克尔·查普曼 Michael Chapman
       凯尔·加斯 Kyle Gass
       温迪·布劳恩 Wendy Braun
       Jennifer Savidge Jennifer Savidge
       杰瑞·特雷纳 Jerry Trainor
       Stephanie Hodge Stephanie Hodge
       Kristen Meadows Kristen Meadows
       米丽亚姆·福林 Miriam Flynn
       玛丽·帕特·格里森 Mary Pat Gleason
       安德鲁·鲍文 Andrew Bowen
       李·加林顿 Lee Garlington
       乔希·阿克曼 Josh Ackerman
       Kenn Michael Kenn Michael
       约翰·赵 John Cho
       阿德琳妮·史密斯 Adrienne Smith
       克里斯·维尔德 Chris Wylde
       马蒂·贝拉夫斯基 Marty Belafsky
       汤姆·戴维斯 Tom Davis
       安格洛·瓦科 Angelo Vacco
       艾琳·卡鲁菲 Erin Carufel
       Diondre Cheatam Diondre Cheatam
        Patrick Coleman Duncan
       Leslie McCasky Leslie McCasky
       汤姆·伍德鲁夫 Tom Woodruff Jr.

◎标  签 科幻 | 喜剧 | 美国 | 搞笑 | 美国电影 | 2001 | 进化 | 电影

◎简  介

  一颗陨石坠落到亚利桑那州的荒漠中,在它撞击形成的溶洞内,一个与世隔绝的奇异世界正飞速形成。从单细胞到多细胞,从类鸟类到灵长类,外星生物已难以想象的速度高速进化,并开始影响人类的生存。
  
  在大学任教的伊尔(David Duchovny 大卫?杜楚尼 饰)和同事兼好友哈里(Orlando Jones 奥兰多?琼斯 饰)最早发现了陨石所带来的外星生物痕迹,并意识到其高速进化背后的危险性。在隶属军方疾病控制中心的女官员艾丽森(Julianne Moore 朱丽安?摩尔 饰)的帮助下,他们偷偷搜集数据,寻找遏制外星生物入侵的办法……
Video
ID                                       : 1
Format                                   : AVC
Format/Info                              : Advanced Video Codec
Format profile                           :
Format settings                          : CABAC / 8 Ref Frames
Format settings, CABAC                   : Yes
Format settings, Reference frames        : 8 frames
Codec ID                                 : V_MPEG4/ISO/AVC
Duration                                 : 1 h 41 min
Bit rate                                 : 7 677 kb/s
Width                                    : 1 280 pixels
Height                                   : 720 pixels
Display aspect ratio                     : 16:9
Frame rate mode                          : Constant
Frame rate                               : 23.976 (24000/1001/189150) FPS
Color space                              : YUV
Chroma subsampling                       : 4:2:0
Bit depth                                : 8 bits
Scan type                                : Progressive
Bits/(Pixel*Frame)                       : 0.347
Stream size                              : 5.45 GiB (92%)
Writing library                          : x264 core 164 r3065 ae03d92
Encoding settings                        : cabac=1 / ref=8 / deblock=1:-3:-3 / analyse=0x3:0x133 / me=umh / subme=9 / psy=1 / psy_rd=1.00:0.00 / mixed_ref=1 / me_range=16 / chroma_me=1 / trellis=2 / 8x8dct=1 / cqm=0 / deadzone=21,11 / fast_pskip=0 / chroma_qp_offset=-2 / threads=24 / lookahead_threads=2 / sliced_threads=0 / nr=0 / decimate=0 / interlaced=0 / bluray_compat=0 / constrained_intra=0 / bframes=3 / b_pyramid=2 / b_adapt=2 / b_bias=0 / direct=3 / weightb=1 / open_gop=0 / weightp=2 / keyint=250 / keyint_min=23 / scenecut=40 / intra_refresh=0 / rc=crf / mbtree=0 / crf=18.0 / qcomp=0.60 / qpmin=0 / qpmax=69 / qpstep=4 / ip_ratio=1.40 / pb_ratio=1.30 / aq=3:0.70
Language                                 : English
Default                                  : Yes
Forced                                   : No
Color range                              : Limited
Matrix coefficients                      : BT.709

Audio
ID                                       : 2
Format                                   : AC-3
Format/Info                              : Audio Coding 3
Commercial name                          : Dolby Digital
Codec ID                                 : A_AC3
Duration                                 : 1 h 41 min
Bit rate mode                            : Constant
Bit rate                                 : 640 kb/s
Channel(s)                               : 6 channels
Channel layout                           : L R C LFE Ls Rs
Sampling rate                            : 48.0 kHz
Frame rate                               : 31.250 FPS (1536 SPF)
Compression mode                         : Lossy
Stream size                              : 466 MiB (8%)
Language                                 : English
Service kind                             : Complete Main
Default                                  : Yes
Forced                                   : No

Text #1
ID                                       : 3
Format                                   : UTF-8
Codec ID                                 : S_TEXT/UTF8
Codec ID/Info                            : UTF-8 Plain Text
Duration                                 : 1 h 33 min
Bit rate                                 : 60 b/s
Count of elements                        : 1164
Stream size                              : 41.2 KiB (0%)
Title                                    : English (SRT)
Language                                 : English
Default                                  : No
Forced                                   : No

Text #2
ID                                       : 4
Format                                   : PGS
Muxing mode                              : zlib
Codec ID                                 : S_HDMV/PGS
Codec ID/Info                            : Picture based subtitle format used on BDs/HD-DVDs
Duration                                 : 1 h 33 min
Bit rate                                 : 33.4 kb/s
Count of elements                        : 2328
Stream size                              : 22.4 MiB (0%)
Title                                    : English
Language                                 : English
Default                                  : No
Forced                                   : No

Text #3
ID                                       : 5
Format                                   : PGS
Muxing mode                              : zlib
Codec ID                                 : S_HDMV/PGS
Codec ID/Info                            : Picture based subtitle format used on BDs/HD-DVDs
Duration                                 : 1 h 33 min
Bit rate                                 : 41.2 kb/s
Count of elements                        : 2314
Stream size                              : 27.6 MiB (0%)
Title                                    : German
Language                                 : German
Default                                  : No
Forced                                   : No

Menu
00:00:00.000                             : Chapter 01
00:09:54.928                             : Chapter 02
00:15:23.381                             : Chapter 03
00:17:52.738                             : Chapter 04
00:26:30.756                             : Chapter 05
00:33:54.241                             : Chapter 06
00:40:19.626                             : Chapter 07
00:44:55.818                             : Chapter 08
00:49:20.332                             : Chapter 09
00:57:17.893                             : Chapter 10
01:07:13.780                             : Chapter 11
01:17:02.618                             : Chapter 12
01:19:26.971                             : Chapter 13
01:25:42.429                             : Chapter 14
01:32:01.850                             : Chapter 15
01:36:13.309                             : Chapter 16





                                                                                                                                                                                                        
                                                                                                                                                                                                                                                                                                                                                                                                                                                                                                                                                                                                                                                                                                                                                                                                                                                        
ddf1ad7c976d42d648440a67265fc19c.torrent (15.54 KB, 下载次数: 0)

回复

使用道具 举报

小黑屋|西西论坛

本网站所有资源来自网络,如无意中侵犯了您的权益,请发邮件至 [email protected],立即清除相关链接

GMT+8, 2021-9-19 09:17 , Processed in 0.104728 second(s), 17 queries .

Powered by Discuz! X3.2

© 2001-2013 Comsenz Inc.

快速回复 返回顶部 返回列表