西西论坛

 找回密码
 立即注册
搜索

赢利 Paydirt.2020.720p.BluRay.x264.DTS-FGT 4.18GB

[复制链接]
admin 发表于 2021-9-10 10:10:29 | 显示全部楼层 |阅读模式
赢利 Paydirt.2020.720p.BluRay.x264.DTS-FGT 4.18GB                                                                                                                                                                                                                                                                                                                                                                                                                                                                                                                                        -->
帖子完整标题:赢利 Paydirt.2020.720p.BluRay.x264.DTS-FGT 4.18GB



f6c04394e82c162e60dc4ad5bc932d65.jpg



◎译  名 赢利/Pay Dirt
◎片  名 Paydirt
◎年  代 2020
◎产  地 美国
◎类  别 惊悚 / 犯罪
◎语  言 英语
◎上映日期 2020-08-07(美国)
◎豆瓣评分 /10 from 0 users
◎豆瓣链接 
◎导  演 克里斯蒂安·塞斯玛 Christian Sesma
◎编  剧 克里斯蒂安·塞斯玛 Christian Sesma
◎主  演 鲁克·高斯 Luke Goss
       方·基默 Val Kilmer
       迈克·哈顿 Mike Hatton
       保罗·斯隆 Paul Sloan
       尼克·瓦莱隆加 Nick Vallelonga
       米尔塔·米切尔 Mirtha Michelle
       穆里尔·特里奥 Murielle Telio

◎标  签 犯罪 | 动作 | 美国 | 惊悚 | 2020 | 美国电影 | 电影 | 剧情

◎简  介

  影片由克里斯蒂安·塞斯玛自编自导,故事讲述一名假释犯和他的老同事们一起,决心找到10年前从一个DEA破产案中偷来的被埋的现金袋,同时被一个退休的警长跟踪的故事。
Video
ID                                       : 1
Format                                   : AVC
Format/Info                              : Advanced Video Codec
Format profile                           :
Format settings                          : CABAC / 4 Ref Frames
Format settings, CABAC                   : Yes
Format settings, Reference frames        : 4 frames
Codec ID                                 : V_MPEG4/ISO/AVC
Duration                                 : 1 h 25 min
Bit rate                                 : 5 500 kb/s
Width                                    : 1 280 pixels
Height                                   : 534 pixels
Display aspect ratio                     : 2.40:1
Original display aspect ratio            : 2.40:1
Frame rate mode                          : Constant
Frame rate                               : 23.976 (24000/1001/189150) FPS
Color space                              : YUV
Chroma subsampling                       : 4:2:0
Bit depth                                : 8 bits
Scan type                                : Progressive
Bits/(Pixel*Frame)                       : 0.336
Stream size                              : 3.28 GiB (78%)
Writing library                          : x264 core 148 r2795M aaa9aa8
Encoding settings                        : cabac=1 / ref=4 / deblock=1:-2:-2 / analyse=0x3:0x113 / me=umh / subme=9 / psy=1 / psy_rd=1.00:0.15 / mixed_ref=1 / me_range=16 / chroma_me=1 / trellis=2 / 8x8dct=1 / cqm=0 / deadzone=21,11 / fast_pskip=1 / chroma_qp_offset=-3 / threads=24 / lookahead_threads=3 / sliced_threads=0 / nr=0 / decimate=1 / interlaced=0 / bluray_compat=0 / constrained_intra=0 / bframes=3 / b_pyramid=2 / b_adapt=1 / b_bias=0 / direct=3 / weightb=1 / open_gop=0 / weightp=2 / keyint=250 / keyint_min=25 / scenecut=40 / intra_refresh=0 / rc_lookahead=50 / rc=2pass / mbtree=1 / bitrate=5500 / ratetol=1.0 / qcomp=0.60 / qpmin=0 / qpmax=69 / qpstep=4 / cplxblur=20.0 / qblur=0.5 / vbv_maxrate=31250 / vbv_bufsize=31250 / nal_hrd=none / filler=0 / ip_ratio=1.40 / aq=1:1.00
Language                                 : English
Default                                  : Yes
Forced                                   : No

Audio
ID                                       : 2
ID in the original source medium         : 4353 (0x1101)
Format                                   : DTS
Format/Info                              : Digital Theater Systems
Codec ID                                 : A_DTS
Duration                                 : 1 h 25 min
Bit rate mode                            : Constant
Bit rate                                 : 1 509 kb/s
Channel(s)                               : 6 channels
Channel layout                           : C L R Ls Rs LFE
Sampling rate                            : 48.0 kHz
Frame rate                               : 93.750 FPS (512 SPF)
Bit depth                                : 24 bits
Compression mode                         : Lossy
Stream size                              : 922 MiB (22%)
Title                                    : DTS 5.1
Language                                 : English
Default                                  : No
Forced                                   : No
Original source medium                   : Blu-ray

Text
ID                                       : 3
Format                                   : UTF-8
Codec ID                                 : S_TEXT/UTF8
Codec ID/Info                            : UTF-8 Plain Text
Duration                                 : 1 h 21 min
Bit rate                                 : 65 b/s
Count of elements                        : 1322
Stream size                              : 39.1 KiB (0%)
Language                                 : English
Default                                  : No
Forced                                   : No

Menu
00:00:00.000                             : de:Chapter 01
00:10:22.371                             : de:Chapter 02
00:22:31.099                             : de:Chapter 03
00:31:41.566                             : de:Chapter 04
00:41:54.136                             : de:Chapter 05
00:52:36.153                             : de:Chapter 06
01:05:09.655                             : de:Chapter 07
01:15:02.498                             : de:Chapter 08
01:21:29.634                             : de:Chapter 09

85f55fd9de415c8588b18483c0d54d7b.png

[/url]4ff64f9c2993ea0a1c045ac87eeec2ad.png

[/url]dbf3266a9d24f2d4b66477441297da35.png

[/url]



                                                                                                                                                                                                        
                                                                                                                                                                                                                                                                                                                                                                                                                                                                                                                                                                                                                                                                                                                                                                                                                                                        
0c6ad2bdca29fafc8579e8af1347e6ca.torrent (21.49 KB, 下载次数: 0)

回复

使用道具 举报

小黑屋|西西论坛

本网站所有资源来自网络,如无意中侵犯了您的权益,请发邮件至 [email protected],立即清除相关链接

GMT+8, 2021-9-19 10:53 , Processed in 0.133738 second(s), 17 queries .

Powered by Discuz! X3.2

© 2001-2013 Comsenz Inc.

快速回复 返回顶部 返回列表