西西论坛

 找回密码
 立即注册
搜索

山海经之小人国 Troll.The.Tale.of.a.Tail.2018.720p.BluRay.x264-UNVEiL 1.65GB ... ...

[复制链接]
admin 发表于 2021-9-10 10:10:25 | 显示全部楼层 |阅读模式
山海经之小人国 Troll.The.Tale.of.a.Tail.2018.720p.BluRay.x264-UNVEiL 1.65GB                                                                                                                                                                                                                                                                                                                                                                                                                                                                                                                                        -->
帖子完整标题:山海经之小人国 Troll.The.Tale.of.a.Tail.2018.720p.BluRay.x264-UNVEiL 1.65GB



7d169debee5f22254a9d68d1cc7adcd6.jpg



◎译  名 Troll: The Tale of a Tail
◎片  名 山海经之小人国
◎年  代 2018
◎产  地 中国大陆,美国,加拿大,挪威
◎类  别 动画 / 儿童 / 冒险
◎语  言 汉语普通话,英语
◎上映日期 2018-12-25(挪威) / 2021-09-19(中国大陆)
◎豆瓣评分 /10 from 0 users
◎豆瓣链接 
◎片  长 90分钟
◎导  演 凯文·门罗 Kevin Munroe / 克里斯蒂安·坎普 Kristian Kamp
◎编  剧 张大星 Daxing Zhang / 苏珊娜·博尔奇 Suzanne Bolch / 约翰·梅 John May / 凯文·门罗 Kevin Munroe / 克里斯蒂安·坎普 Kristian Kamp
◎主  演 冯岚 Lan Feng
       云鹤追 Zhu Yi
       尊龙
       刘若班 Ruoban Liu
       邹轩琦 Xuanqi Zou

◎标  签 动画 | 尊龙 | 中国电影 | 电影 | 国产动画 | 梦工厂 | 迪士尼 | 国产

◎简  介

  影片根据中国古代神话故事《山海经》所记载的周饶小人国传说改编而成,讲述了周饶小人国的王子锤木,在意外之中闯下大祸,导致父亲变成石像,最后一路经历冒险,重新拯救了父亲和王国的故事。
Video
ID                                       : 1
Format                                   : AVC
Format/Info                              : Advanced Video Codec
Format profile                           :
Format settings                          : CABAC / 8 Ref Frames
Format settings, CABAC                   : Yes
Format settings, Reference frames        : 8 frames
Codec ID                                 : V_MPEG4/ISO/AVC
Duration                                 : 1 h 27 min
Bit rate                                 : 2 029 kb/s
Width                                    : 1 280 pixels
Height                                   : 536 pixels
Display aspect ratio                     : 2.40:1
Frame rate mode                          : Constant
Frame rate                               : 25.000 FPS
Color space                              : YUV
Chroma subsampling                       : 4:2:0
Bit depth                                : 8 bits
Scan type                                : Progressive
Bits/(Pixel*Frame)                       : 0.118
Stream size                              : 1.24 GiB (75%)
Writing library                          : x264 core 164 r3065 ae03d92
Encoding settings                        : cabac=1 / ref=8 / deblock=1:-3:-3 / analyse=0x3:0x133 / me=umh / subme=9 / psy=1 / psy_rd=1.00:0.00 / mixed_ref=1 / me_range=16 / chroma_me=1 / trellis=2 / 8x8dct=1 / cqm=0 / deadzone=21,11 / fast_pskip=0 / chroma_qp_offset=-2 / threads=17 / lookahead_threads=1 / sliced_threads=0 / nr=0 / decimate=1 / interlaced=0 / bluray_compat=0 / constrained_intra=0 / bframes=3 / b_pyramid=2 / b_adapt=2 / b_bias=0 / direct=3 / weightb=1 / open_gop=0 / weightp=2 / keyint=250 / keyint_min=25 / scenecut=40 / intra_refresh=0 / rc_lookahead=60 / rc=crf / mbtree=1 / crf=17.0 / qcomp=0.60 / qpmin=0 / qpmax=69 / qpstep=4 / ip_ratio=1.40 / aq=1:1.00
Language                                 : English
Default                                  : Yes
Forced                                   : No

Audio
ID                                       : 2
Format                                   : AC-3
Format/Info                              : Audio Coding 3
Commercial name                          : Dolby Digital
Codec ID                                 : A_AC3
Duration                                 : 1 h 27 min
Bit rate mode                            : Constant
Bit rate                                 : 640 kb/s
Channel(s)                               : 6 channels
Channel layout                           : L R C LFE Ls Rs
Sampling rate                            : 48.0 kHz
Frame rate                               : 31.250 FPS (1536 SPF)
Compression mode                         : Lossy
Stream size                              : 399 MiB (24%)
Language                                 : English
Service kind                             : Complete Main
Default                                  : Yes
Forced                                   : No

Text #1
ID                                       : 3
Format                                   : UTF-8
Codec ID                                 : S_TEXT/UTF8
Codec ID/Info                            : UTF-8 Plain Text
Duration                                 : 1 s 640 ms
Bit rate                                 : 87 b/s
Count of elements                        : 1
Stream size                              : 18.0 Bytes (0%)
Title                                    : forced
Language                                 : English
Default                                  : Yes
Forced                                   : Yes

Text #2
ID                                       : 4
Format                                   : PGS
Muxing mode                              : zlib
Codec ID                                 : S_HDMV/PGS
Codec ID/Info                            : Picture based subtitle format used on BDs/HD-DVDs
Duration                                 : 1 s 640 ms
Bit rate                                 : 54.2 kb/s
Count of elements                        : 2
Stream size                              : 10.8 KiB (0%)
Title                                    : forced
Language                                 : English
Default                                  : No
Forced                                   : No

Text #3
ID                                       : 5
Format                                   : PGS
Muxing mode                              : zlib
Codec ID                                 : S_HDMV/PGS
Codec ID/Info                            : Picture based subtitle format used on BDs/HD-DVDs
Duration                                 : 1 h 19 min
Bit rate                                 : 28.2 kb/s
Count of elements                        : 1925
Stream size                              : 16.1 MiB (1%)
Language                                 : English
Default                                  : No
Forced                                   : No

Text #4
ID                                       : 6
Format                                   : PGS
Muxing mode                              : zlib
Codec ID                                 : S_HDMV/PGS
Codec ID/Info                            : Picture based subtitle format used on BDs/HD-DVDs
Duration                                 : 1 h 19 min
Bit rate                                 : 33.5 kb/s
Count of elements                        : 1925
Stream size                              : 19.0 MiB (1%)
Language                                 : German
Default                                  : No
Forced                                   : No

Menu
00:00:00.000                             : en:Chapter 01
00:03:13.000                             : en:Chapter 02
00:09:17.600                             : en:Chapter 03
00:14:32.400                             : en:Chapter 04
00:18:57.360                             : en:Chapter 05
00:23:08.080                             : en:Chapter 06
00:27:41.800                             : en:Chapter 07
00:33:58.000                             : en:Chapter 08
00:41:50.800                             : en:Chapter 09
00:50:01.200                             : en:Chapter 10
00:54:55.000                             : en:Chapter 11
01:03:00.400                             : en:Chapter 12
01:10:58.800                             : en:Chapter 13
01:19:31.400                             : en:Chapter 14

93f045f8ca7a3f52453f84ea8488bf09.jpg





                                                                                                                                                                                                        
                                                                                                                                                                                                                                                                                                                                                                                                                                                                                                                                                                                                                                                                                                                                                                                                                                                        
cdf8169579ce7a7b428545402170d3ef.torrent (17.21 KB, 下载次数: 0)

回复

使用道具 举报

小黑屋|西西论坛

本网站所有资源来自网络,如无意中侵犯了您的权益,请发邮件至 [email protected],立即清除相关链接

GMT+8, 2021-9-19 10:32 , Processed in 0.102744 second(s), 17 queries .

Powered by Discuz! X3.2

© 2001-2013 Comsenz Inc.

快速回复 返回顶部 返回列表