西西论坛

 找回密码
 立即注册
搜索

左拉 Zola.2020.720p.BluRay.x264.DTS-FGT 4.21GB

[复制链接]
admin 发表于 2021-9-10 10:10:14 | 显示全部楼层 |阅读模式
左拉 Zola.2020.720p.BluRay.x264.DTS-FGT 4.21GB                                                                                                                                                                                                                                                                                                                                                                                                                                                                                                                                        -->
帖子完整标题:左拉 Zola.2020.720p.BluRay.x264.DTS-FGT 4.21GB





◎译  名 左拉
◎片  名 Zola
◎年  代 2020
◎产  地 美国
◎类  别 剧情 / 喜剧 / 犯罪
◎语  言 英语
◎上映日期 2020-01-24(圣丹斯电影节) / 2021-06-30(美国)
◎豆瓣评分 6.1/10 from 411 users
◎豆瓣链接 
◎片  长 90分钟
◎导  演 加妮克扎·布拉沃 Janicza Bravo
◎编  剧 加妮克扎·布拉沃 Janicza Bravo / 安德鲁·尼尔 Andrew Neel / 迈克·罗伯茨 Mike Roberts
◎主  演 泰勒·佩姬 Taylour Paige
       丽莉·吉欧 Riley Keough
       尼尔西·索弗朗  Nelcie Souffrant
       纳西尔·拉希姆 Nasir Rahim
       阿里尔·斯泰切尔 Ari'el Stachel
       科尔曼·多明戈 Colman Domingo
       尼可拉斯·博朗 Nicholas Braun
       杰森·米切尔 Jason Mitchell
       茨·麦迪逊 Ts Madison
       安德鲁·罗马诺 Andrew Romano
       卡梅伦·布鲁姆布罗 Cameron Brumbelow
       梅根·海耶斯 Megan Hayes
       Dania Vizzi Dania Vizzi
       Steve Warren Steve Warren

◎标  签 美国 | 剧情 | A24 | 2020 | 喜剧 | 2021 | 美国电影 | 电影

◎简  介

  讲述一名年轻的充满异域风情的舞者同意与一名妓女、她的男友和一名皮条客一起踏上前往弗罗里达的旅行,在途中,她收获到了比想象中更多的东西。

◎获奖情况

  第36届圣丹斯电影节 ?(2020)
  评审团大奖剧情片(提名) 加妮克扎·布拉沃
Video
ID                                       : 1
Format                                   : AVC
Format/Info                              : Advanced Video Codec
Format profile                           :
Format settings                          : CABAC / 4 Ref Frames
Format settings, CABAC                   : Yes
Format settings, Reference frames        : 4 frames
Codec ID                                 : V_MPEG4/ISO/AVC
Duration                                 : 1 h 25 min
Bit rate                                 : 5 500 kb/s
Width                                    : 1 280 pixels
Height                                   : 690 pixels
Display aspect ratio                     : 1.85:1
Original display aspect ratio            : 1.85:1
Frame rate mode                          : Constant
Frame rate                               : 23.976 (24000/1001/189150) FPS
Color space                              : YUV
Chroma subsampling                       : 4:2:0
Bit depth                                : 8 bits
Scan type                                : Progressive
Bits/(Pixel*Frame)                       : 0.260
Stream size                              : 3.30 GiB (78%)
Writing library                          : x264 core 148 r2795M aaa9aa8
Encoding settings                        : cabac=1 / ref=4 / deblock=1:-2:-2 / analyse=0x3:0x113 / me=umh / subme=9 / psy=1 / psy_rd=1.00:0.15 / mixed_ref=1 / me_range=16 / chroma_me=1 / trellis=2 / 8x8dct=1 / cqm=0 / deadzone=21,11 / fast_pskip=1 / chroma_qp_offset=-3 / threads=24 / lookahead_threads=3 / sliced_threads=0 / nr=0 / decimate=1 / interlaced=0 / bluray_compat=0 / constrained_intra=0 / bframes=3 / b_pyramid=2 / b_adapt=1 / b_bias=0 / direct=3 / weightb=1 / open_gop=0 / weightp=2 / keyint=250 / keyint_min=25 / scenecut=40 / intra_refresh=0 / rc_lookahead=50 / rc=2pass / mbtree=1 / bitrate=5500 / ratetol=1.0 / qcomp=0.60 / qpmin=0 / qpmax=69 / qpstep=4 / cplxblur=20.0 / qblur=0.5 / vbv_maxrate=31250 / vbv_bufsize=31250 / nal_hrd=none / filler=0 / ip_ratio=1.40 / aq=1:1.00
Language                                 : English
Default                                  : Yes
Forced                                   : No

Audio
ID                                       : 2
Format                                   : DTS
Format/Info                              : Digital Theater Systems
Codec ID                                 : A_DTS
Duration                                 : 1 h 25 min
Bit rate mode                            : Constant
Bit rate                                 : 1 509 kb/s
Channel(s)                               : 6 channels
Channel layout                           : C L R Ls Rs LFE
Sampling rate                            : 48.0 kHz
Frame rate                               : 93.750 FPS (512 SPF)
Bit depth                                : 24 bits
Compression mode                         : Lossy
Stream size                              : 927 MiB (22%)
Language                                 : English
Default                                  : Yes
Forced                                   : No

Text
ID                                       : 3
Format                                   : UTF-8
Codec ID                                 : S_TEXT/UTF8
Codec ID/Info                            : UTF-8 Plain Text
Duration                                 : 1 h 20 min
Bit rate                                 : 49 b/s
Count of elements                        : 932
Stream size                              : 28.9 KiB (0%)
Title                                    : SRT
Language                                 : English
Default                                  : Yes
Forced                                   : No

Menu
00:00:00.000                             : Chapter 01
00:06:16.585                             : Chapter 02
00:09:41.498                             : Chapter 03
00:13:13.793                             : Chapter 04
00:18:58.179                             : Chapter 05
00:25:03.293                             : Chapter 06
00:28:56.610                             : Chapter 07
00:32:05.799                             : Chapter 08
00:36:36.694                             : Chapter 09
00:40:11.868                             : Chapter 10
00:44:36.549                             : Chapter 11
00:50:50.547                             : Chapter 12
00:58:03.230                             : Chapter 13
01:04:51.387                             : Chapter 14
01:10:52.999                             : Chapter 15
01:19:54.581                             : Chapter 16





                                                                                                                                                                                                        
                                                                                                                                                                                                                                                                                                                                                                                                                                                                                                                                                                                                                                                                                                                                                                                                                                                        
e7e534e56c073cfd6002bdac1f6008a0.torrent (21.64 KB, 下载次数: 0)

回复

使用道具 举报

小黑屋|西西论坛

本网站所有资源来自网络,如无意中侵犯了您的权益,请发邮件至 [email protected],立即清除相关链接

GMT+8, 2021-9-19 09:46 , Processed in 0.096676 second(s), 17 queries .

Powered by Discuz! X3.2

© 2001-2013 Comsenz Inc.

快速回复 返回顶部 返回列表