西西论坛

 找回密码
 立即注册
搜索

七度音程女人 The.Last.House.On.The.Beach.1978.720p.BluRay.x264-GUACAMOLE 4.48GB ...

[复制链接]
admin 发表于 2021-9-10 10:10:09 | 显示全部楼层 |阅读模式
七度音程女人 The.Last.House.On.The.Beach.1978.720p.BluRay.x264-GUACAMOLE 4.48GB                                                                                                                                                                                                                                                                                                                                                                                                                                                                                                                                        -->
帖子完整标题:七度音程女人 The.Last.House.On.The.Beach.1978.720p.BluRay.x264-GUACAMOLE 4.48GB



7ec16a034d80979e3ec52df3143929bf.jpg



◎译  名 七度音程女人/Terror/The Last House on the Beach
◎片  名 La Settima donna
◎年  代 1978
◎产  地 意大利
◎类  别 剧情 / 惊悚 / 恐怖
◎语  言 英语
◎上映日期 1978-04-20
◎豆瓣评分 6.3/10 from 62 users
◎豆瓣链接 
◎片  长 86 分钟
◎导  演 弗兰克·普罗斯佩里 Franco Prosperi
◎主  演 劳拉·特罗德尔 Laura Trotter
       雷·洛夫洛克 Ray Lovelock
       弗洛琳达·布尔康 Florinda Bolkan
       谢丽·布坎南 Sherry Buchanan
       伊莎贝尔·皮萨诺 Isabel Pisano
       路易莎·马内里 Luisa Maneri

◎标  签 意大利 | 惊悚 | 犯罪 | 意大利电影 | 恐怖 |  | 1978 | 被忽视的片子

◎简  介

  Just for the record, the Italian title of this film is "The Seventh Woman". Three bank robbers on the run in their aging Citroen come across a remote beach house & find that as a perfect place to hide out. Trouble is, though, the house is occupied, by a few Catholic school girls and their teacher, who is also a nun. The sadistic bank robbers move right on in, kill the maid, and then proceed to have their way with a a couple of the girls and their teacher. One girl spurned one robber's advances with a deftly aimed comb handle to the groin area, and he's not doing too well, though. The girls, of course, and the nun, are not about to continue to be subjected to rape & torture, and eventually get the upper hand. This is no where near as nasty as "Last House On The Left", it's more a rather pale imitation. Still though, it's a decent enough exploitation film, if you like that sort of thing, but there's nothing to elevate it above that particular distinction. 6 out of 10.
Video
ID                                       : 1
Format                                   : AVC
Format/Info                              : Advanced Video Codec
Format profile                           :
Format settings                          : CABAC / 8 Ref Frames
Format settings, CABAC                   : Yes
Format settings, Reference frames        : 8 frames
Codec ID                                 : V_MPEG4/ISO/AVC
Duration                                 : 1 h 29 min
Bit rate                                 : 6 871 kb/s
Width                                    : 1 280 pixels
Height                                   : 550 pixels
Display aspect ratio                     : 2.35:1
Frame rate mode                          : Constant
Frame rate                               : 23.976 (24000/1001/189150) FPS
Color space                              : YUV
Chroma subsampling                       : 4:2:0
Bit depth                                : 8 bits
Scan type                                : Progressive
Bits/(Pixel*Frame)                       : 0.407
Stream size                              : 4.30 GiB (96%)
Writing library                          : x264 core 164 r3065 ae03d92
Encoding settings                        : cabac=1 / ref=8 / deblock=1:-3:-3 / analyse=0x3:0x133 / me=umh / subme=9 / psy=1 / psy_rd=1.00:0.00 / mixed_ref=1 / me_range=16 / chroma_me=1 / trellis=2 / 8x8dct=1 / cqm=0 / deadzone=21,11 / fast_pskip=0 / chroma_qp_offset=-2 / threads=17 / lookahead_threads=1 / sliced_threads=0 / nr=0 / decimate=1 / interlaced=0 / bluray_compat=0 / constrained_intra=0 / bframes=3 / b_pyramid=2 / b_adapt=2 / b_bias=0 / direct=3 / weightb=1 / open_gop=0 / weightp=2 / keyint=250 / keyint_min=23 / scenecut=40 / intra_refresh=0 / rc_lookahead=60 / rc=crf / mbtree=1 / crf=18.0 / qcomp=0.60 / qpmin=0 / qpmax=69 / qpstep=4 / ip_ratio=1.40 / aq=3:0.60
Default                                  : Yes
Forced                                   : No
Color range                              : Limited
Matrix coefficients                      : BT.709

Audio
ID                                       : 2
Format                                   : FLAC
Format/Info                              : Free Lossless Audio Codec
Codec ID                                 : A_FLAC
Duration                                 : 1 h 29 min
Bit rate mode                            : Variable
Bit rate                                 : 273 kb/s
Channel(s)                               : 1 channel
Channel layout                           : C
Sampling rate                            : 48.0 kHz
Frame rate                               : 11.719 FPS (4096 SPF)
Bit depth                                : 16 bits
Compression mode                         : Lossless
Stream size                              : 175 MiB (4%)
Writing library                          : libFLAC 1.2.1 (UTC 2007-09-17)
Language                                 : Italian
Default                                  : Yes
Forced                                   : No

Text #1
ID                                       : 3
Format                                   : UTF-8
Codec ID                                 : S_TEXT/UTF8
Codec ID/Info                            : UTF-8 Plain Text
Duration                                 : 1 h 24 min
Bit rate                                 : 31 b/s
Count of elements                        : 579
Stream size                              : 19.3 KiB (0%)
Language                                 : English
Default                                  : Yes
Forced                                   : Yes

Text #2
ID                                       : 4
Format                                   : PGS
Muxing mode                              : zlib
Codec ID                                 : S_HDMV/PGS
Codec ID/Info                            : Picture based subtitle format used on BDs/HD-DVDs
Duration                                 : 1 h 24 min
Bit rate                                 : 16.5 kb/s
Count of elements                        : 1057
Stream size                              : 9.93 MiB (0%)
Language                                 : English
Default                                  : No
Forced                                   : No

Text #3
ID                                       : 5
Format                                   : PGS
Muxing mode                              : zlib
Codec ID                                 : S_HDMV/PGS
Codec ID/Info                            : Picture based subtitle format used on BDs/HD-DVDs
Duration                                 : 1 h 24 min
Bit rate                                 : 19.4 kb/s
Count of elements                        : 1057
Stream size                              : 11.7 MiB (0%)
Language                                 : German
Default                                  : No
Forced                                   : No

Menu
00:00:00.000                             : en:00:00:00.000
00:13:32.895                             : en:00:13:32.895
00:30:50.098                             : en:00:30:50.098
00:42:13.698                             : en:00:42:13.698
00:55:50.347                             : en:00:55:50.347
01:08:30.898                             : en:01:08:30.898
01:19:34.937                             : en:01:19:34.937
01:28:15.749                             : en:01:28:15.749

4b6ba5155b4c918b99fd7fb4f7a98233.jpg





                                                                                                                                                                                                        
                                                                                                                                                                                                                                                                                                                                                                                                                                                                                                                                                                                                                                                                                                                                                                                                                                                        
9396b2746bf860aca09fce64f7a6358b.torrent (23.13 KB, 下载次数: 0)

回复

使用道具 举报

小黑屋|西西论坛

本网站所有资源来自网络,如无意中侵犯了您的权益,请发邮件至 [email protected],立即清除相关链接

GMT+8, 2021-9-19 09:37 , Processed in 0.117465 second(s), 17 queries .

Powered by Discuz! X3.2

© 2001-2013 Comsenz Inc.

快速回复 返回顶部 返回列表