西西论坛

 找回密码
 立即注册
搜索

小镇缉凶/迷雾中的小镇 The.Dry.2020.720p.BluRay.x264-BLOW 4.96GB

[复制链接]
admin 发表于 2021-9-9 10:40:03 | 显示全部楼层 |阅读模式
小镇缉凶/迷雾中的小镇 The.Dry.2020.720p.BluRay.x264-BLOW 4.96GB                                                                                                                                                                                                                                                                                                                                                                                                                                                                                                                                        -->
帖子完整标题:小镇缉凶/迷雾中的小镇 The.Dry.2020.720p.BluRay.x264-BLOW 4.96GB



e269896dff2b2bb5a68052cb6cb77154.jpg



◎译  名 小镇缉凶/迷雾中的小镇
◎片  名 The Dry
◎年  代 2021
◎产  地 澳大利亚,美国
◎类  别 剧情
◎语  言 英语
◎上映日期 2021-01-01(澳大利亚)
◎豆瓣评分 6.8/10 from 2305 users
◎豆瓣链接 
◎片  长 117分钟
◎导  演 罗伯特·康诺利 Robert Connolly
◎编  剧 罗伯特·康诺利 Robert Connolly / 萨曼莎·斯特劳斯 Samantha Strauss / 哈里·克里普斯 Harry Cripps
◎主  演 艾瑞克·巴纳 Eric Bana
       吉娜薇·欧瑞丽 Genevieve O'Reilly
       基尔·奥唐纳 Keir O'Donnell
       约翰·波尔森 John Polson
       朱丽娅·布莱克 Julia Blake
       布鲁斯·斯宾斯 Bruce Spence
       威廉·扎帕 William Zappa
       马特·纳夫莱 Matt Nable
       詹姆斯·弗兰切威勒 James Frecheville
       杰里米·林赛·泰勒 Jeremy Lindsay Taylor
       乔·克洛塞克 Joe Klocek
       碧比·贝登科特 BeBe Bettencourt
       克劳德·斯科特-米歇尔 Claude Scott-Mitchell
       山姆·科利特 Sam Corlett

◎标  签 悬疑 | 犯罪 | 澳大利亚 | 剧情 | 人性 | 2020 | 美国 | 家庭

◎简  介

  艾瑞克·巴纳加盟澳大利亚新片[小镇缉凶](The Dry,暂译)。影片改编自简·哈珀同名畅销小说,罗伯特·康诺利(《深暗势力》)自编自导,巴纳、康诺利共同担任监制。影片围绕一个警察回到老家侦破凶案展开,明年二月开机。这也是巴纳自2007年的[我的父亲,罗穆卢斯]后再度拍摄澳大利亚影片。
Video
ID                                       : 1
Format                                   : AVC
Format/Info                              : Advanced Video Codec
Format profile                           :
Format settings                          : CABAC / 8 Ref Frames
Format settings, CABAC                   : Yes
Format settings, Reference frames        : 8 frames
Codec ID                                 : V_MPEG4/ISO/AVC
Duration                                 : 1 h 57 min
Bit rate                                 : 5 394 kb/s
Width                                    : 1 280 pixels
Height                                   : 534 pixels
Display aspect ratio                     : 2.40:1
Frame rate mode                          : Constant
Frame rate                               : 24.000 FPS
Color space                              : YUV
Chroma subsampling                       : 4:2:0
Bit depth                                : 8 bits
Scan type                                : Progressive
Bits/(Pixel*Frame)                       : 0.329
Stream size                              : 4.42 GiB (89%)
Writing library                          : x264 core 164 r3065 ae03d92
Encoding settings                        : cabac=1 / ref=8 / deblock=1:1:1 / analyse=0x3:0x133 / me=umh / subme=9 / psy=1 / psy_rd=0.70:0.00 / mixed_ref=1 / me_range=16 / chroma_me=1 / trellis=2 / 8x8dct=1 / cqm=0 / deadzone=21,11 / fast_pskip=0 / chroma_qp_offset=-2 / threads=24 / lookahead_threads=2 / sliced_threads=0 / nr=0 / decimate=0 / interlaced=0 / bluray_compat=0 / constrained_intra=0 / bframes=3 / b_pyramid=2 / b_adapt=2 / b_bias=0 / direct=3 / weightb=1 / open_gop=0 / weightp=2 / keyint=250 / keyint_min=24 / scenecut=40 / intra_refresh=0 / rc=crf / mbtree=0 / crf=19.0 / qcomp=0.60 / qpmin=0 / qpmax=69 / qpstep=4 / ip_ratio=1.40 / pb_ratio=1.30 / aq=3:1.00
Language                                 : English
Default                                  : Yes
Forced                                   : No
Color range                              : Limited
Matrix coefficients                      : BT.709

Audio
ID                                       : 2
Format                                   : AC-3
Format/Info                              : Audio Coding 3
Commercial name                          : Dolby Digital
Codec ID                                 : A_AC3
Duration                                 : 1 h 57 min
Bit rate mode                            : Constant
Bit rate                                 : 640 kb/s
Channel(s)                               : 6 channels
Channel layout                           : L R C LFE Ls Rs
Sampling rate                            : 48.0 kHz
Frame rate                               : 31.250 FPS (1536 SPF)
Compression mode                         : Lossy
Stream size                              : 537 MiB (11%)
Language                                 : English
Service kind                             : Complete Main
Default                                  : Yes
Forced                                   : No

Text #1
ID                                       : 3
Format                                   : UTF-8
Codec ID                                 : S_TEXT/UTF8
Codec ID/Info                            : UTF-8 Plain Text
Duration                                 : 1 h 50 min
Bit rate                                 : 47 b/s
Count of elements                        : 1328
Stream size                              : 38.2 KiB (0%)
Title                                    : English (SRT)
Language                                 : English
Default                                  : No
Forced                                   : No

Text #2
ID                                       : 4
Format                                   : UTF-8
Codec ID                                 : S_TEXT/UTF8
Codec ID/Info                            : UTF-8 Plain Text
Duration                                 : 1 h 54 min
Bit rate                                 : 54 b/s
Count of elements                        : 1619
Stream size                              : 45.9 KiB (0%)
Title                                    : English (SDH SRT)
Language                                 : English
Default                                  : No
Forced                                   : No

Text #3
ID                                       : 5
Format                                   : PGS
Muxing mode                              : zlib
Codec ID                                 : S_HDMV/PGS
Codec ID/Info                            : Picture based subtitle format used on BDs/HD-DVDs
Duration                                 : 1 h 54 min
Bit rate                                 : 35.1 kb/s
Count of elements                        : 3239
Stream size                              : 28.6 MiB (1%)
Title                                    : English (SDH)
Language                                 : English
Default                                  : No
Forced                                   : No

Menu
00:00:00.000                             : Chapter 01
00:10:18.125                             : Chapter 02
00:18:41.250                             : Chapter 03
00:27:51.458                             : Chapter 04
00:37:40.208                             : Chapter 05
00:45:57.000                             : Chapter 06
00:55:04.042                             : Chapter 07
01:03:10.875                             : Chapter 08
01:15:37.542                             : Chapter 09
01:24:29.583                             : Chapter 10
01:32:51.208                             : Chapter 11
01:45:40.667                             : Chapter 12

fcd8757f56ad04c7a0ad028443fe75c8.jpg





                                                                                                                                                                                                        
                                                                                                                                                                                                                                                                                                                                                                                                                                                                                                                                                                                                                                                                                                                                                                                                                                                        
f8d946abf9aa0ca391b505b10f5c85f8.torrent (25.48 KB, 下载次数: 0)

回复

使用道具 举报

小黑屋|西西论坛

本网站所有资源来自网络,如无意中侵犯了您的权益,请发邮件至 [email protected],立即清除相关链接

GMT+8, 2021-9-19 10:18 , Processed in 0.119332 second(s), 17 queries .

Powered by Discuz! X3.2

© 2001-2013 Comsenz Inc.

快速回复 返回顶部 返回列表