西西论坛

 找回密码
 立即注册
搜索

宝贝东西 Me.and.Him.1988.720p.BluRay.x264-GUACAMOLE 3.54GB

[复制链接]
admin 发表于 2021-9-9 10:39:58 | 显示全部楼层 |阅读模式
宝贝东西 Me.and.Him.1988.720p.BluRay.x264-GUACAMOLE 3.54GB                                                                                                                                                                                                                                                                                                                                                                                                                                                                                                                                        -->
帖子完整标题:宝贝东西 Me.and.Him.1988.720p.BluRay.x264-GUACAMOLE 3.54GB



09dd1f3ef8446df5b293b3c0846910db.jpg



◎译  名 宝贝东西/Me and Him
◎片  名 Me and Him
◎年  代 1988
◎产  地 西德,美国
◎类  别 喜剧
◎语  言 德语,英语
◎上映日期 1988-09-15
◎豆瓣评分 /10 from 0 users
◎豆瓣链接 
◎片  长 Germany: 93 分钟
◎导  演 多丽丝·德里 Doris D?rrie
◎编  剧 阿尔贝托·莫拉维亚 Alberto Moravia / 多丽丝·德里 Doris D?rrie / 沃伦·莱特 Warren Leight
◎主  演 Jana Schneider Jana Schneider
       Mark Linn-Baker Mark Linn-Baker
       詹姆斯·莱利 James Lally
       罗伯特·拉萨多 Robert LaSardo
       卡伦谢罗 Karen Shallo
       罗科·西斯托 Rocco Sisto
       塞缪尔·E·赖特 Samuel E. Wright
       查莱宁·伍德拉德 Charlayne Woodard
       John Baray John Baray
       Mary Ann Kellogg Mary Ann Kellogg
       海纳·劳特尔巴赫 Heiner Lauterbach
       南希吉尔斯 Nancy Giles
       格雷格·T·尼尔森 Craig T. Nelson
       凯莉·洛维 Carey Lowell
       莉莉亚斯·惠特 Lillias White
       大卫·艾兰·格里尔 David Alan Grier
       James A. Baffico James A. Baffico
       格里芬·邓恩 Griffin Dunne
       凯利·毕晓普 Kelly Bishop
       雷格·E·凯蒂 Reg E. Cathey
       William De Acutis William De Acutis
       Alison Fraser Alison Fraser
       劳拉·伊斯特曼 Laura Esterman
       艾伦·格里尼 Ellen Greene
       Ernesto Gasco Ernesto Gasco
       茱迪·马克尔 Jodie Markell

◎标  签 德国 | 桃丽丝·多利 | 喜剧 | M德国 | D桃丽丝·多利 | D?rrie | Doris | C德国

◎简  介

  暂无相关剧情介绍
Video
ID                                       : 1
Format                                   : AVC
Format/Info                              : Advanced Video Codec
Format profile                           :
Format settings                          : CABAC / 8 Ref Frames
Format settings, CABAC                   : Yes
Format settings, Reference frames        : 8 frames
Codec ID                                 : V_MPEG4/ISO/AVC
Duration                                 : 1 h 33 min
Bit rate                                 : 5 155 kb/s
Width                                    : 1 280 pixels
Height                                   : 720 pixels
Display aspect ratio                     : 16:9
Frame rate mode                          : Constant
Frame rate                               : 24.000 FPS
Color space                              : YUV
Chroma subsampling                       : 4:2:0
Bit depth                                : 8 bits
Scan type                                : Progressive
Bits/(Pixel*Frame)                       : 0.233
Stream size                              : 3.38 GiB (95%)
Writing library                          : x264 core 164 r3065 ae03d92
Encoding settings                        : cabac=1 / ref=8 / deblock=1:-3:-3 / analyse=0x3:0x133 / me=umh / subme=9 / psy=1 / psy_rd=1.00:0.00 / mixed_ref=1 / me_range=16 / chroma_me=1 / trellis=2 / 8x8dct=1 / cqm=0 / deadzone=21,11 / fast_pskip=0 / chroma_qp_offset=-2 / threads=22 / lookahead_threads=1 / sliced_threads=0 / nr=0 / decimate=1 / interlaced=0 / bluray_compat=0 / constrained_intra=0 / bframes=3 / b_pyramid=2 / b_adapt=2 / b_bias=0 / direct=3 / weightb=1 / open_gop=0 / weightp=2 / keyint=250 / keyint_min=24 / scenecut=40 / intra_refresh=0 / rc_lookahead=60 / rc=crf / mbtree=1 / crf=17.0 / qcomp=0.60 / qpmin=0 / qpmax=69 / qpstep=4 / ip_ratio=1.40 / aq=3:0.60
Default                                  : Yes
Forced                                   : No
Color range                              : Limited
Matrix coefficients                      : BT.709

Audio
ID                                       : 2
Format                                   : AC-3
Format/Info                              : Audio Coding 3
Commercial name                          : Dolby Digital
Codec ID                                 : A_AC3
Duration                                 : 1 h 33 min
Bit rate mode                            : Constant
Bit rate                                 : 224 kb/s
Channel(s)                               : 2 channels
Channel layout                           : L R
Sampling rate                            : 48.0 kHz
Frame rate                               : 31.250 FPS (1536 SPF)
Compression mode                         : Lossy
Stream size                              : 150 MiB (4%)
Language                                 : English
Service kind                             : Complete Main
Default                                  : Yes
Forced                                   : No

Text #1
ID                                       : 3
Format                                   : PGS
Muxing mode                              : zlib
Codec ID                                 : S_HDMV/PGS
Codec ID/Info                            : Picture based subtitle format used on BDs/HD-DVDs
Duration                                 : 1 h 30 min
Bit rate                                 : 17.6 kb/s
Count of elements                        : 2702
Stream size                              : 11.5 MiB (0%)
Language                                 : German
Default                                  : No
Forced                                   : No

Text #2
ID                                       : 4
Format                                   : PGS
Muxing mode                              : zlib
Codec ID                                 : S_HDMV/PGS
Codec ID/Info                            : Picture based subtitle format used on BDs/HD-DVDs
Duration                                 : 41 min 12 s
Bit rate                                 : 126 b/s
Count of elements                        : 10
Stream size                              : 38.0 KiB (0%)
Language                                 : German
Default                                  : No
Forced                                   : No

Menu
00:00:00.000                             : en:00:00:00.000
00:07:51.417                             : en:00:07:51.417
00:17:28.750                             : en:00:17:28.750
00:24:57.792                             : en:00:24:57.792
00:29:56.167                             : en:00:29:56.167
00:39:33.292                             : en:00:39:33.292
00:46:09.375                             : en:00:46:09.375
00:53:48.625                             : en:00:53:48.625
01:03:12.292                             : en:01:03:12.292
01:13:44.667                             : en:01:13:44.667
01:18:10.625                             : en:01:18:10.625
01:28:51.958                             : en:01:28:51.958

93412c232b3a7e05dd677b9a78098d71.jpg





                                                                                                                                                                                                        
                                                                                                                                                                                                                                                                                                                                                                                                                                                                                                                                                                                                                                                                                                                                                                                                                                                        
d59a84887e07f2aeca2c1fff4325c437.torrent (18.35 KB, 下载次数: 0)

回复

使用道具 举报

小黑屋|西西论坛

本网站所有资源来自网络,如无意中侵犯了您的权益,请发邮件至 [email protected],立即清除相关链接

GMT+8, 2021-9-19 09:43 , Processed in 0.383726 second(s), 17 queries .

Powered by Discuz! X3.2

© 2001-2013 Comsenz Inc.

快速回复 返回顶部 返回列表