西西论坛

 找回密码
 立即注册
搜索

二十世纪 The.Twentieth.Century.2019.720p.BluRay.x264-USURY 6.28GB

[复制链接]
admin 发表于 2021-9-8 10:13:23 | 显示全部楼层 |阅读模式
二十世纪 The.Twentieth.Century.2019.720p.BluRay.x264-USURY 6.28GB                                                                                                                                                                                                                                                                                                                                                                                                                                                                                                                                        -->
帖子完整标题:二十世纪 The.Twentieth.Century.2019.720p.BluRay.x264-USURY 6.28GB



16e492b39b12b09a7f8fb6af01e504aa.jpg



◎译  名 二十世纪/The 20th Century/麦肯齐金总理秘史♂(台)
◎片  名 The Twentieth Century
◎年  代 2019
◎产  地 加拿大
◎类  别 喜剧 / 传记
◎语  言 英语
◎上映日期 2019-09-07(多伦多电影节) / 2020-11-20(美国)
◎豆瓣评分 7.2/10 from 1336 users
◎豆瓣链接 
◎片  长 90分钟
◎导  演 马修·兰金 Matthew Rankin
◎编  剧 马修·兰金 Matthew Rankin
◎主  演 丹·贝尔尼 Dan Beirne
       凯瑟琳·圣罗兰 Catherine St-Laurent
       奇·陈 Kee Chan
       理查德·朱特拉斯 Richard Jutras
       嘉登·马隆 Jadyn Malone
       埃马纽埃尔·施瓦茨 Emmanuel Schwartz
       路易斯·涅 Louis Negin
       肖恩·卡伦 Sean Cullen

◎标  签 加拿大 | 传记 | 喜剧 | 2019 | 加拿大电影 | 柏林电影节 | P-BerlinE论坛单元 | Berlinale70

◎简  介

  本片取材自加国前总理麦肯齐?金的日记。特以超8和16mm摄影机拍摄,引用真实世界人物的语句,并搭设大量场景与动画营造怀旧时代感,还偷渡了反串、3P、恋鞋癖、种族及纵欲等多项议题,揭露奠定加拿大基础的沙文主义殖民态度,也顺势造就一段荒诞怪奇又爱到卡惨死的假传记爱情。

◎获奖情况

  第70届柏林国际电影节 ?(2020)
  费比西奖(国际影评人联盟奖)论坛及新电影论坛最佳影片
  泰迪熊奖(提名) 马修·兰金
Video
ID                                       : 1
Format                                   : AVC
Format/Info                              : Advanced Video Codec
Format profile                           :
Format settings                          : CABAC / 12 Ref Frames
Format settings, CABAC                   : Yes
Format settings, Reference frames        : 12 frames
Codec ID                                 : V_MPEG4/ISO/AVC
Duration                                 : 1 h 30 min
Bit rate                                 : 9 150 kb/s
Width                                    : 960 pixels
Height                                   : 720 pixels
Display aspect ratio                     : 4:3
Frame rate mode                          : Constant
Frame rate                               : 24.000 FPS
Color space                              : YUV
Chroma subsampling                       : 4:2:0
Bit depth                                : 8 bits
Scan type                                : Progressive
Bits/(Pixel*Frame)                       : 0.552
Stream size                              : 5.78 GiB (92%)
Writing library                          : x264 core 164 r3065 ae03d92
Encoding settings                        : cabac=1 / ref=12 / deblock=1:-3:-3 / analyse=0x3:0x133 / me=umh / subme=10 / psy=1 / psy_rd=1.00:0.15 / mixed_ref=1 / me_range=24 / chroma_me=1 / trellis=2 / 8x8dct=1 / cqm=0 / deadzone=21,11 / fast_pskip=1 / chroma_qp_offset=-3 / threads=18 / lookahead_threads=3 / sliced_threads=0 / nr=0 / decimate=1 / interlaced=0 / bluray_compat=0 / constrained_intra=0 / bframes=8 / b_pyramid=2 / b_adapt=2 / b_bias=0 / direct=3 / weightb=1 / open_gop=0 / weightp=2 / keyint=250 / keyint_min=24 / scenecut=40 / intra_refresh=0 / rc_lookahead=60 / rc=crf / mbtree=1 / crf=21.5 / qcomp=0.60 / qpmin=0 / qpmax=69 / qpstep=4 / ip_ratio=1.40 / aq=3:0.50
Language                                 : English
Default                                  : Yes
Forced                                   : No
Color range                              : Limited
Matrix coefficients                      : BT.709

Audio #1
ID                                       : 2
Format                                   : AC-3
Format/Info                              : Audio Coding 3
Commercial name                          : Dolby Digital
Codec ID                                 : A_AC3
Duration                                 : 1 h 30 min
Bit rate mode                            : Constant
Bit rate                                 : 640 kb/s
Channel(s)                               : 6 channels
Channel layout                           : L R C LFE Ls Rs
Sampling rate                            : 48.0 kHz
Frame rate                               : 31.250 FPS (1536 SPF)
Compression mode                         : Lossy
Stream size                              : 414 MiB (6%)
Language                                 : English
Service kind                             : Complete Main
Default                                  : Yes
Forced                                   : No

Audio #2
ID                                       : 3
Format                                   : AAC LC
Format/Info                              : Advanced Audio Codec Low Complexity
Codec ID                                 : A_AAC-2
Duration                                 : 1 h 30 min
Bit rate                                 : 90.4 kb/s
Channel(s)                               : 2 channels
Channel layout                           : L R
Sampling rate                            : 48.0 kHz
Frame rate                               : 46.875 FPS (1024 SPF)
Compression mode                         : Lossy
Delay relative to video                  : 9 ms
Stream size                              : 58.5 MiB (1%)
Title                                    : English Commentary by Matthew Rankin and Dan Beirne
Language                                 : English
Default                                  : No
Forced                                   : No

Text #1
ID                                       : 4
Format                                   : UTF-8
Codec ID                                 : S_TEXT/UTF8
Codec ID/Info                            : UTF-8 Plain Text
Duration                                 : 52 min 29 s
Bit rate                                 : 1 b/s
Count of elements                        : 23
Stream size                              : 775 Bytes (0%)
Title                                    : English forced
Language                                 : English
Default                                  : Yes
Forced                                   : Yes

Text #2
ID                                       : 5
Format                                   : PGS
Muxing mode                              : zlib
Codec ID                                 : S_HDMV/PGS
Codec ID/Info                            : Picture based subtitle format used on BDs/HD-DVDs
Duration                                 : 52 min 29 s
Bit rate                                 : 1 527 b/s
Count of elements                        : 42
Stream size                              : 587 KiB (0%)
Title                                    : English forced
Language                                 : English
Default                                  : No
Forced                                   : No

Text #3
ID                                       : 6
Format                                   : UTF-8
Codec ID                                 : S_TEXT/UTF8
Codec ID/Info                            : UTF-8 Plain Text
Duration                                 : 1 h 26 min
Bit rate                                 : 58 b/s
Count of elements                        : 1266
Stream size                              : 37.1 KiB (0%)
Title                                    : English
Language                                 : English
Default                                  : No
Forced                                   : No

Text #4
ID                                       : 7
Format                                   : UTF-8
Codec ID                                 : S_TEXT/UTF8
Codec ID/Info                            : UTF-8 Plain Text
Duration                                 : 1 h 28 min
Bit rate                                 : 65 b/s
Count of elements                        : 1478
Stream size                              : 42.1 KiB (0%)
Title                                    : English SDH
Language                                 : English
Default                                  : No
Forced                                   : No

Text #5
ID                                       : 8
Format                                   : PGS
Muxing mode                              : zlib
Codec ID                                 : S_HDMV/PGS
Codec ID/Info                            : Picture based subtitle format used on BDs/HD-DVDs
Duration                                 : 1 h 28 min
Bit rate                                 : 52.6 kb/s
Count of elements                        : 2956
Stream size                              : 33.2 MiB (1%)
Title                                    : English SDH
Language                                 : English
Default                                  : No
Forced                                   : No

Menu
00:00:00.000                             : en:00:00:00.000
00:03:57.208                             : en:00:03:57.208
00:15:05.791                             : en:00:15:05.791
00:22:59.458                             : en:00:22:59.458
00:34:49.125                             : en:00:34:49.125
00:39:47.750                             : en:00:39:47.750
00:44:20.708                             : en:00:44:20.708
00:50:41.333                             : en:00:50:41.333
00:55:07.666                             : en:00:55:07.666
01:01:00.333                             : en:01:01:00.333
01:13:06.416                             : en:01:13:06.416
01:28:15.791                             : en:01:28:15.791
01:30:28.333                             : en:01:30:28.333

bcc7ef39a2e4a75a694a6158b7f0693c.jpg





                                                                                                                                                                                                        
                                                                                                                                                                                                                                                                                                                                                                                                                                                                                                                                                                                                                                                                                                                                                                                                                                                        
fa3dfa29806a813b41ad051ccb5ba23f.torrent (16.44 KB, 下载次数: 0)

回复

使用道具 举报

小黑屋|西西论坛

本网站所有资源来自网络,如无意中侵犯了您的权益,请发邮件至 [email protected],立即清除相关链接

GMT+8, 2021-9-19 09:20 , Processed in 0.108904 second(s), 17 queries .

Powered by Discuz! X3.2

© 2001-2013 Comsenz Inc.

快速回复 返回顶部 返回列表