西西论坛

 找回密码
 立即注册
搜索

塔可夫斯基:在电影中祈祷 Andrey.Tarkovsky.A.Cinema.Prayer.2019.720p.BluRay.x264-B ...

[复制链接]
admin 发表于 2021-9-8 10:13:18 | 显示全部楼层 |阅读模式
塔可夫斯基:在电影中祈祷 Andrey.Tarkovsky.A.Cinema.Prayer.2019.720p.BluRay.x264-BiPOLAR 3.96                                                                                                                                                                                                                                                                                                                                                                                                                                                                                                                                        -->
帖子完整标题:塔可夫斯基:在电影中祈祷 Andrey.Tarkovsky.A.Cinema.Prayer.2019.720p.BluRay.x264-BiPOLAR 3.96GB



ed7583961f07435b889bc0b0ff7d60e0.jpg



◎译  名 塔可夫斯基:在电影中祈祷/Andrej Tarkovskij. Il Cinema come Preghiera/Andrey Tarkovsky. A Cinema Prayer/Tarkovskij Cinema Prayer/塔可夫斯基:以电影之诗祈祷(台)/虔诚者塔可夫斯基(港)
◎片  名 Андрей Тарковский. Кино как молитва
◎年  代 2019
◎产  地 意大利,俄罗斯,瑞典
◎类  别 纪录片
◎语  言 俄语
◎上映日期 2019-08-30(威尼斯电影节) / 2020-01-20(意大利)
◎豆瓣评分 8.6/10 from 2010 users
◎豆瓣链接 
◎片  长 97分钟
◎导  演 Andrej Andrejevich Tarkovskij Jr. Andrey A. Tarkovskiy
◎编  剧 Andrej Andrejevich Tarkovskij Jr. Andrey A. Tarkovskiy
◎主  演 安德烈·塔可夫斯基 Andrei Tarkovsky

◎标  签 纪录片 | 安德烈·塔可夫斯基 | 塔可夫斯基 | 俄罗斯 | 意大利 | 2019 | 紀錄片 | 电影

◎简  介

  塔可夫斯基之子亲自编导,由导演父亲塔可夫斯基的珍贵自述贯穿全片,并以诗人祖父阿尔谢尼的诗作相互呼应,娓娓道出电影诗人面对艺术及生命的哲思与信念。片中更罕见地透露塔可夫斯基对部份 作品的诠释,为其如梦的影像世界留下注解。
  
  以七部长片、一部短片的创作历程为经,对电影艺术的思索及追求为纬,八段章节串起塔可夫斯基的艺术创作与成长经历,在个人生命的生灭之间,镜头下流动的诗性与灵性如祷词般信仰坚定、永恒不坠。在生命真理和创作意义的叩问之余,更见证艺 术家对故乡的恋恋不舍。在导演眼中,在时间之流 里,父亲的身影永远鲜明。
  
  「我期盼引领观众一窥其创作源头,分享我与他互动时的感受。他是伟大的艺术家、伟大的人,也是我的人生导师。他是我的父亲。」──安德烈安塔可夫斯基

◎获奖情况

  第76届威尼斯电影节 ?(2019)
  威尼斯经典奖最佳公映纪录片(提名) AndrejAndrejevichTarkovskijJr.
Video
ID                                       : 1
Format                                   : AVC
Format/Info                              : Advanced Video Codec
Format profile                           :
Format settings                          : CABAC / 9 Ref Frames
Format settings, CABAC                   : Yes
Format settings, Reference frames        : 9 frames
Codec ID                                 : V_MPEG4/ISO/AVC
Duration                                 : 1 h 42 min
Bit rate                                 : 4 901 kb/s
Width                                    : 1 280 pixels
Height                                   : 720 pixels
Display aspect ratio                     : 16:9
Frame rate mode                          : Constant
Frame rate                               : 23.976 (24000/1001/189150) FPS
Color space                              : YUV
Chroma subsampling                       : 4:2:0
Bit depth                                : 8 bits
Scan type                                : Progressive
Bits/(Pixel*Frame)                       : 0.222
Stream size                              : 3.50 GiB (88%)
Writing library                          : x264 core 164 r3065 ae03d92
Encoding settings                        : cabac=1 / ref=9 / deblock=1:-3:-3 / analyse=0x3:0x133 / me=umh / subme=10 / psy=1 / psy_rd=1.00:0.15 / mixed_ref=1 / me_range=24 / chroma_me=1 / trellis=2 / 8x8dct=1 / cqm=0 / deadzone=21,11 / fast_pskip=1 / chroma_qp_offset=-3 / threads=18 / lookahead_threads=3 / sliced_threads=0 / nr=0 / decimate=1 / interlaced=0 / bluray_compat=0 / constrained_intra=0 / bframes=8 / b_pyramid=2 / b_adapt=2 / b_bias=0 / direct=3 / weightb=1 / open_gop=0 / weightp=2 / keyint=250 / keyint_min=23 / scenecut=40 / intra_refresh=0 / rc_lookahead=60 / rc=crf / mbtree=1 / crf=17.0 / qcomp=0.60 / qpmin=0 / qpmax=69 / qpstep=4 / ip_ratio=1.40 / aq=3:0.60
Language                                 : English
Default                                  : Yes
Forced                                   : No

Audio
ID                                       : 2
Format                                   : AC-3
Format/Info                              : Audio Coding 3
Commercial name                          : Dolby Digital
Codec ID                                 : A_AC3
Duration                                 : 1 h 42 min
Bit rate mode                            : Constant
Bit rate                                 : 640 kb/s
Channel(s)                               : 6 channels
Channel layout                           : L R C LFE Ls Rs
Sampling rate                            : 48.0 kHz
Frame rate                               : 31.250 FPS (1536 SPF)
Compression mode                         : Lossy
Stream size                              : 468 MiB (12%)
Language                                 : Russian
Service kind                             : Complete Main
Default                                  : Yes
Forced                                   : No

Text #1
ID                                       : 3
Format                                   : UTF-8
Codec ID                                 : S_TEXT/UTF8
Codec ID/Info                            : UTF-8 Plain Text
Duration                                 : 1 h 35 min
Bit rate                                 : 70 b/s
Count of elements                        : 1216
Stream size                              : 49.4 KiB (0%)
Title                                    : English
Language                                 : English
Default                                  : Yes
Forced                                   : Yes

Text #2
ID                                       : 4
Format                                   : PGS
Muxing mode                              : zlib
Codec ID                                 : S_HDMV/PGS
Codec ID/Info                            : Picture based subtitle format used on BDs/HD-DVDs
Duration                                 : 1 h 35 min
Bit rate                                 : 15.8 kb/s
Count of elements                        : 2432
Stream size                              : 10.8 MiB (0%)
Title                                    : English
Language                                 : English
Default                                  : No
Forced                                   : No

d9f5ebb2e7c5aeb21256e6f796d15053.jpg





                                                                                                                                                                                                        
                                                                                                                                                                                                                                                                                                                                                                                                                                                                                                                                                                                                                                                                                                                                                                                                                                                        
9d9546fd3cc9dc7a2280ca637ff0ff6b.torrent (20.6 KB, 下载次数: 0)

回复

使用道具 举报

小黑屋|西西论坛

本网站所有资源来自网络,如无意中侵犯了您的权益,请发邮件至 [email protected],立即清除相关链接

GMT+8, 2021-9-19 10:24 , Processed in 0.152915 second(s), 17 queries .

Powered by Discuz! X3.2

© 2001-2013 Comsenz Inc.

快速回复 返回顶部 返回列表