西西论坛

 找回密码
 立即注册
搜索

重慶森林 Chungking.Express.1994.RESTORED.720p.BluRay.x264-CiNEPHiLiA 5.50GB

[复制链接]
admin 发表于 2021-9-8 10:13:09 | 显示全部楼层 |阅读模式
重慶森林 Chungking.Express.1994.RESTORED.720p.BluRay.x264-CiNEPHiLiA 5.50GB                                                                                                                                                                                                                                                                                                                                                                                                                                                                                                                                        -->
帖子完整标题:重慶森林 Chungking.Express.1994.RESTORED.720p.BluRay.x264-CiNEPHiLiA 5.50GB



1dea244d245acd8e9f4efaa592b140ae.jpg



◎译  名 重庆森林/Chungking Express
◎片  名 重慶森林
◎年  代 1994
◎产  地 中国香港
◎类  别 剧情 / 爱情
◎语  言 粤语,汉语普通话,英语,印地语,日语
◎上映日期 1994-07-14(中国香港)
◎豆瓣评分 8.8/10 from 671587 users
◎豆瓣链接 
◎片  长 102分钟
◎导  演 王家卫 Kar Wai Wong
◎编  剧 王家卫 Kar Wai Wong
◎主  演 林青霞 Brigitte Lin
       金城武 Takeshi Kaneshiro
       梁朝伟 Tony Leung Chiu Wai
       王菲 Faye Wong
       周嘉玲 Valerie Chow
       黄志明 Wong Chi-Ming
       左颂升 Chung-Sing Choh
       关莉娜 Lee-na Kwan

◎标  签 王家卫 | 王菲 | 爱情 | 重庆森林 | 梁朝伟 | 香港 | 香港电影 | 文艺

◎简  介

  编号为223的警察(金城武)失恋后患上失恋综合症,在与金发女杀手(林青霞)擦肩而过又离奇相遇并有了一晚温情后,原本以为包括“爱情”在内的所有东西都有保质期的他意外地迎来心灵的短暂温暖。可是,他们的爱情还是结束了。
  
  快餐店新来的女招待阿菲(王菲)爱上了时常光顾快餐店的编号 为663的警察(梁朝伟),因拆了他的女友(周嘉玲)留在快餐店给他的“分手” 信,阿菲知晓了他的心情,偷拿到他的钥匙趁他不在时常潜入他家,一边梦游一边悄悄地改变他的生活,终在被他撞见时令其感受到情感的回归。然而,这才是他们爱情的开始。

◎获奖情况

  第31届台北金马影展 ?(1994)
  金马奖最佳剧情片(提名)
  金马奖最佳导演(提名) 王家卫
  金马奖最佳男主角 梁朝伟
  金马奖最佳女主角(提名) 王菲
  金马奖最佳摄影(提名) 刘伟强?/?杜可风
  金马奖最佳美术设计(提名) 张叔平
  金马奖最佳原创配乐(提名) 陈勋奇
  金马奖最佳剪辑(提名) 张叔平?/?邝志良?/?奚杰伟
  
  第14届香港电影金像奖 ?(1995)
  最佳电影
  最佳导演 王家卫
  最佳编剧(提名) 王家卫
  最佳男主角 梁朝伟
  最佳女主角(提名) 王菲
  最佳女配角(提名) 周嘉玲
  最佳摄影(提名) 刘伟强?/?杜可风
  最佳剪接 张叔平?/?邝志良?/?奚杰伟
  最佳美术指导(提名) 张叔平
  最佳原创电影音乐(提名) 罗尔·A·加西亚?/?陈勋奇
  
  第48届洛迦诺国际电影节 ?(1994)
  金豹奖(提名) 王家卫
Video
ID                                       : 1
Format                                   : AVC
Format/Info                              : Advanced Video Codec
Format profile                           :
Format settings                          : CABAC / 8 Ref Frames
Format settings, CABAC                   : Yes
Format settings, Reference frames        : 8 frames
Codec ID                                 : V_MPEG4/ISO/AVC
Duration                                 : 1 h 42 min
Bit rate                                 : 7 005 kb/s
Width                                    : 1 198 pixels
Height                                   : 720 pixels
Display aspect ratio                     : 5:3
Frame rate mode                          : Constant
Frame rate                               : 23.976 (24000/1001/189150) FPS
Color space                              : YUV
Chroma subsampling                       : 4:2:0
Bit depth                                : 8 bits
Scan type                                : Progressive
Bits/(Pixel*Frame)                       : 0.339
Stream size                              : 5.03 GiB (92%)
Writing library                          : x264 core 164 r3065 ae03d92
Encoding settings                        : cabac=1 / ref=8 / deblock=1:-3:-3 / analyse=0x3:0x133 / me=umh / subme=9 / psy=1 / psy_rd=1.00:0.00 / mixed_ref=1 / me_range=24 / chroma_me=1 / trellis=2 / 8x8dct=1 / cqm=0 / deadzone=21,11 / fast_pskip=0 / chroma_qp_offset=-2 / threads=22 / lookahead_threads=2 / sliced_threads=0 / nr=0 / decimate=0 / interlaced=0 / bluray_compat=0 / constrained_intra=0 / bframes=5 / b_pyramid=2 / b_adapt=2 / b_bias=0 / direct=3 / weightb=1 / open_gop=0 / weightp=2 / keyint=250 / keyint_min=23 / scenecut=40 / intra_refresh=0 / rc_lookahead=60 / rc=crf / mbtree=0 / crf=17.6 / qcomp=0.60 / qpmin=0 / qpmax=69 / qpstep=4 / vbv_maxrate=62500 / vbv_bufsize=78125 / crf_max=0.0 / nal_hrd=none / filler=0 / ip_ratio=1.40 / pb_ratio=1.30 / aq=3:0.80
Default                                  : Yes
Forced                                   : No

Audio
ID                                       : 2
Format                                   : AC-3
Format/Info                              : Audio Coding 3
Commercial name                          : Dolby Digital
Codec ID                                 : A_AC3
Duration                                 : 1 h 42 min
Bit rate mode                            : Constant
Bit rate                                 : 640 kb/s
Channel(s)                               : 6 channels
Channel layout                           : L R C LFE Ls Rs
Sampling rate                            : 48.0 kHz
Frame rate                               : 31.250 FPS (1536 SPF)
Compression mode                         : Lossy
Stream size                              : 471 MiB (8%)
Language                                 : Chinese
Service kind                             : Complete Main
Default                                  : Yes
Forced                                   : No

Text #1
ID                                       : 3
Format                                   : PGS
Muxing mode                              : zlib
Codec ID                                 : S_HDMV/PGS
Codec ID/Info                            : Picture based subtitle format used on BDs/HD-DVDs
Duration                                 : 1 h 39 min
Bit rate                                 : 26.3 kb/s
Count of elements                        : 1598
Stream size                              : 18.7 MiB (0%)
Language                                 : English
Default                                  : No
Forced                                   : No

Text #2
ID                                       : 4
Format                                   : UTF-8
Codec ID                                 : S_TEXT/UTF8
Codec ID/Info                            : UTF-8 Plain Text
Duration                                 : 1 h 39 min
Bit rate                                 : 31 b/s
Count of elements                        : 799
Stream size                              : 23.2 KiB (0%)
Language                                 : English
Default                                  : Yes
Forced                                   : Yes

Menu
00:00:00.000                             : :Chapter 01
00:05:49.808                             : :Chapter 02
00:17:06.567                             : :Chapter 03
00:22:02.863                             : :Chapter 04
00:26:06.982                             : :Chapter 05
00:32:42.627                             : :Chapter 06
00:36:26.017                             : :Chapter 07
00:40:49.238                             : :Chapter 08
00:44:57.111                             : :Chapter 09
00:53:38.298                             : :Chapter 10
00:58:42.102                             : :Chapter 11
01:01:48.163                             : :Chapter 12
01:10:20.091                             : :Chapter 13
01:20:18.731                             : :Chapter 14
01:24:34.945                             : :Chapter 15
01:28:27.219                             : :Chapter 16
01:36:19.565                             : :Chapter 17





                                                                                                                                                                                                        
                                                                                                                                                                                                                                                                                                                                                                                                                                                                                                                                                                                                                                                                                                                                                                                                                                                        
5eb1a379733b46945362f13ca2cf45a1.torrent (18.43 KB, 下载次数: 0)

回复

使用道具 举报

小黑屋|西西论坛

本网站所有资源来自网络,如无意中侵犯了您的权益,请发邮件至 [email protected],立即清除相关链接

GMT+8, 2021-9-19 09:31 , Processed in 0.136203 second(s), 17 queries .

Powered by Discuz! X3.2

© 2001-2013 Comsenz Inc.

快速回复 返回顶部 返回列表