西西论坛

 找回密码
 立即注册
搜索

墮落天使 Fallen.Angels.1995.RESTORED.720p.BluRay.x264-CiNEPHiLiA 2.64GB

[复制链接]
admin 发表于 2021-9-8 10:13:06 | 显示全部楼层 |阅读模式
墮落天使 Fallen.Angels.1995.RESTORED.720p.BluRay.x264-CiNEPHiLiA 2.64GB                                                                                                                                                                                                                                                                                                                                                                                                                                                                                                                                        -->
帖子完整标题:墮落天使 Fallen.Angels.1995.RESTORED.720p.BluRay.x264-CiNEPHiLiA 2.64GB



b2d7657395596578f86b8af9f878f0d1.jpg



◎译  名 堕落天使/Fallen Angels
◎片  名 墮落天使
◎年  代 1995
◎产  地 中国香港
◎类  别 剧情 / 喜剧 / 爱情 / 犯罪
◎语  言 粤语
◎上映日期 1995-09-06(中国香港)
◎豆瓣评分 8.3/10 from 147532 users
◎豆瓣链接 
◎片  长 99分钟
◎导  演 王家卫 Kar Wai Wong
◎编  剧 王家卫 Kar Wai Wong
◎主  演 黎明 Leon Lai
       李嘉欣 Michelle Reis
       金城武 Takeshi Kaneshiro
       杨采妮 Charlie Yeung
       莫文蔚 Karen Mok
       陈辉虹 Fai-hung Chan
       陈万雷 Man-Lei Chan
       关莉娜 Lee-na Kwan
       江道海 To-hoi Kong
       钟荣 Chung Wing
       张志平 Chi Ping Chang
       韩在硕 Jae-seok Han

◎标  签 王家卫 | 香港 | 金城武 | 香港电影 | 李嘉欣 | 爱情 | 堕落天使 | 黎明

◎简  介

  天使1号(黎明)很懒惰,所以选择做了时间、地点、谁该死都不用操心的杀手。天使2号(李嘉欣)很冷艳,是1号的上线,喜欢华服夜出为1号清理房间。天使3号(金城武)很怪异,从不讲话的他爱做的事是半夜撬开别人的店面做生意和拿着摄像机将老爸拍个遍。天使4号(杨采妮)很“现实”,虽无法忘记旧 男友,却也能转身用另外的方式将自己安慰。天使5号(莫文蔚)很神经,喜欢在大雨夜冒出。
  
  五位天使在自己的生活轨道上固执寂寞地前行着,为了避免换回更多伤心,他们在轨迹交叉时会提醒自己“忘记他是他”,可是,他们的真情还是会不由自主地流露出来。

◎获奖情况

  第32届台北金马影展 ?(1995)
  金马奖最佳摄影(提名) 杜可风
  金马奖最佳美术设计 张叔平
  金马奖最佳原创配乐(提名) 陈勋奇
  金马奖最佳剪辑 张叔平?/?黄铭林
  
  第15届香港电影金像奖 ?(1996)
  最佳电影(提名) 刘镇伟
  最佳导演(提名) 王家卫
  最佳女配角 莫文蔚
  最佳新演员(提名) ChenManLei
  最佳摄影 杜可风
  最佳剪接(提名) 张叔平?/?黄铭林
  最佳美术指导(提名) 张叔平
  最佳服装造型设计(提名) 张叔平
  最佳原创电影音乐 罗尔·A·加西亚?/?陈勋奇
Video
ID                                       : 1
Format                                   : AVC
Format/Info                              : Advanced Video Codec
Format profile                           :
Format settings                          : CABAC / 8 Ref Frames
Format settings, CABAC                   : Yes
Format settings, Reference frames        : 8 frames
Codec ID                                 : V_MPEG4/ISO/AVC
Duration                                 : 1 h 39 min
Bit rate                                 : 3 161 kb/s
Width                                    : 1 280 pixels
Height                                   : 544 pixels
Display aspect ratio                     : 2.35:1
Frame rate mode                          : Constant
Frame rate                               : 23.976 (24000/1001/189150) FPS
Color space                              : YUV
Chroma subsampling                       : 4:2:0
Bit depth                                : 8 bits
Scan type                                : Progressive
Bits/(Pixel*Frame)                       : 0.189
Stream size                              : 2.19 GiB (83%)
Writing library                          : x264 core 164 r3065 ae03d92
Encoding settings                        : cabac=1 / ref=8 / deblock=1:-3:-3 / analyse=0x3:0x133 / me=umh / subme=9 / psy=1 / psy_rd=1.00:0.00 / mixed_ref=1 / me_range=24 / chroma_me=1 / trellis=2 / 8x8dct=1 / cqm=0 / deadzone=21,11 / fast_pskip=0 / chroma_qp_offset=-2 / threads=17 / lookahead_threads=1 / sliced_threads=0 / nr=0 / decimate=0 / interlaced=0 / bluray_compat=0 / constrained_intra=0 / bframes=5 / b_pyramid=2 / b_adapt=2 / b_bias=0 / direct=3 / weightb=1 / open_gop=0 / weightp=2 / keyint=250 / keyint_min=23 / scenecut=40 / intra_refresh=0 / rc_lookahead=60 / rc=crf / mbtree=0 / crf=17.0 / qcomp=0.60 / qpmin=0 / qpmax=69 / qpstep=4 / vbv_maxrate=62500 / vbv_bufsize=78125 / crf_max=0.0 / nal_hrd=none / filler=0 / ip_ratio=1.40 / pb_ratio=1.30 / aq=3:0.80
Default                                  : Yes
Forced                                   : No

Audio
ID                                       : 2
Format                                   : AC-3
Format/Info                              : Audio Coding 3
Commercial name                          : Dolby Digital
Codec ID                                 : A_AC3
Duration                                 : 1 h 39 min
Bit rate mode                            : Constant
Bit rate                                 : 640 kb/s
Channel(s)                               : 6 channels
Channel layout                           : L R C LFE Ls Rs
Sampling rate                            : 48.0 kHz
Frame rate                               : 31.250 FPS (1536 SPF)
Compression mode                         : Lossy
Stream size                              : 454 MiB (17%)
Language                                 : Chinese
Service kind                             : Complete Main
Default                                  : Yes
Forced                                   : No

Text #1
ID                                       : 3
Format                                   : PGS
Muxing mode                              : zlib
Codec ID                                 : S_HDMV/PGS
Codec ID/Info                            : Picture based subtitle format used on BDs/HD-DVDs
Duration                                 : 1 h 34 min
Bit rate                                 : 31.1 kb/s
Count of elements                        : 1502
Stream size                              : 21.0 MiB (1%)
Language                                 : English
Default                                  : No
Forced                                   : No

Text #2
ID                                       : 4
Format                                   : UTF-8
Codec ID                                 : S_TEXT/UTF8
Codec ID/Info                            : UTF-8 Plain Text
Duration                                 : 1 h 34 min
Bit rate                                 : 38 b/s
Count of elements                        : 751
Stream size                              : 26.7 KiB (0%)
Language                                 : English
Default                                  : Yes
Forced                                   : Yes

Menu
00:00:00.000                             : :Chapter 01
00:05:49.808                             : :Chapter 02
00:17:06.567                             : :Chapter 03
00:22:02.863                             : :Chapter 04
00:26:06.982                             : :Chapter 05
00:32:42.627                             : :Chapter 06
00:36:26.017                             : :Chapter 07
00:40:49.238                             : :Chapter 08
00:44:57.111                             : :Chapter 09
00:53:38.298                             : :Chapter 10
00:58:42.102                             : :Chapter 11
01:01:48.163                             : :Chapter 12
01:10:20.091                             : :Chapter 13
01:20:18.731                             : :Chapter 14
01:24:34.945                             : :Chapter 15
01:28:27.219                             : :Chapter 16
01:36:19.565                             : :Chapter 17

0b6d0102cbcbee686e84220e583c72ef.jpg





                                                                                                                                                                                                        
                                                                                                                                                                                                                                                                                                                                                                                                                                                                                                                                                                                                                                                                                                                                                                                                                                                        
bd47fba6b72c390b81179c83637031b9.torrent (27.16 KB, 下载次数: 0)

回复

使用道具 举报

小黑屋|西西论坛

本网站所有资源来自网络,如无意中侵犯了您的权益,请发邮件至 [email protected],立即清除相关链接

GMT+8, 2021-9-19 09:32 , Processed in 0.116154 second(s), 17 queries .

Powered by Discuz! X3.2

© 2001-2013 Comsenz Inc.

快速回复 返回顶部 返回列表