西西论坛

 找回密码
 立即注册
搜索

造孽 Bethany.2017.720p.BluRay.x264-FREEMAN 3.14GB

[复制链接]
admin 发表于 2021-9-8 10:13:02 | 显示全部楼层 |阅读模式
造孽 Bethany.2017.720p.BluRay.x264-FREEMAN 3.14GB                                                                                                                                                                                                                                                                                                                                                                                                                                                                                                                                        -->
帖子完整标题:造孽 Bethany.2017.720p.BluRay.x264-FREEMAN 3.14GB



323663941357111dd159735e383d2a45.jpg



◎译  名 造孽
◎片  名 Bethany
◎年  代 2017
◎产  地 美国
◎类  别 恐怖
◎语  言 英语
◎上映日期 2017-04-07(美国)
◎豆瓣评分 4.8/10 from 183 users
◎豆瓣链接 
◎片  长 90分钟
◎编  剧 扎克·沃德 Zack Ward
◎主  演 斯蒂凡尼·埃斯特斯 Stefanie Estes
       扎克·沃德 Zack Ward
       汤姆·格林 Tom Green
       莎侬·多赫提 Shannen Doherty
       里昂·拉瑟姆 Leon Russom
       苏菲·迪伊 Sophie Dee
       费莉莎·罗斯 Felissa Rose
       Kevin Porter Kevin Porter
       基思·雅各 Keith Jardine
       John Murray John Murray
       托马斯·唐尼 Thomas Downey

◎标  签 恐怖 | 惊悚 | 美国 | 美国电影 | 灵异 | 恐怖电影 | 恐怖惊悚悬疑重口血腥 | 电影

◎简  介

  克莱尔小时候有个假想的朋友,长大后她回到童年的家,却遭到“曾经朋友”的折磨。尽管是一部美式恐怖片,风格却非常多元化,从预告可窥紧绷于弦的气氛。
Video
ID                                       : 1
Format                                   : AVC
Format/Info                              : Advanced Video Codec
Format profile                           :
Format settings                          : CABAC / 8 Ref Frames
Format settings, CABAC                   : Yes
Format settings, Reference frames        : 8 frames
Codec ID                                 : V_MPEG4/ISO/AVC
Duration                                 : 1 h 30 min
Bit rate                                 : 4 343 kb/s
Width                                    : 1 280 pixels
Height                                   : 674 pixels
Display aspect ratio                     : 1.899
Frame rate mode                          : Constant
Frame rate                               : 23.976 (24000/1001/189150) FPS
Color space                              : YUV
Chroma subsampling                       : 4:2:0
Bit depth                                : 8 bits
Scan type                                : Progressive
Bits/(Pixel*Frame)                       : 0.210
Stream size                              : 2.73 GiB (87%)
Writing library                          : x264 core 164 r3065 ae03d92
Encoding settings                        : cabac=1 / ref=8 / deblock=1:-3:-3 / analyse=0x3:0x133 / me=umh / subme=9 / psy=1 / psy_rd=1.00:0.00 / mixed_ref=1 / me_range=16 / chroma_me=1 / trellis=2 / 8x8dct=1 / cqm=0 / deadzone=21,11 / fast_pskip=0 / chroma_qp_offset=-2 / threads=21 / lookahead_threads=1 / sliced_threads=0 / nr=0 / decimate=1 / interlaced=0 / bluray_compat=0 / constrained_intra=0 / bframes=3 / b_pyramid=2 / b_adapt=2 / b_bias=0 / direct=3 / weightb=1 / open_gop=0 / weightp=2 / keyint=250 / keyint_min=23 / scenecut=40 / intra_refresh=0 / rc_lookahead=60 / rc=crf / mbtree=1 / crf=17.0 / qcomp=0.60 / qpmin=0 / qpmax=69 / qpstep=4 / ip_ratio=1.40 / aq=3:1.00
Default                                  : Yes
Forced                                   : No
Color range                              : Limited
Matrix coefficients                      : BT.709

Audio
ID                                       : 2
Format                                   : AC-3
Format/Info                              : Audio Coding 3
Commercial name                          : Dolby Digital
Codec ID                                 : A_AC3
Duration                                 : 1 h 30 min
Bit rate mode                            : Constant
Bit rate                                 : 640 kb/s
Channel(s)                               : 6 channels
Channel layout                           : L R C LFE Ls Rs
Sampling rate                            : 48.0 kHz
Frame rate                               : 31.250 FPS (1536 SPF)
Compression mode                         : Lossy
Stream size                              : 412 MiB (13%)
Language                                 : English
Service kind                             : Complete Main
Default                                  : Yes
Forced                                   : No

Text
ID                                       : 3
Format                                   : PGS
Muxing mode                              : zlib
Codec ID                                 : S_HDMV/PGS
Codec ID/Info                            : Picture based subtitle format used on BDs/HD-DVDs
Duration                                 : 1 h 24 min
Bit rate                                 : 253 b/s
Count of elements                        : 22
Stream size                              : 157 KiB (0%)
Language                                 : German
Default                                  : No
Forced                                   : No

Menu
00:00:00.000                             : en:00:00:00.000
00:06:14.916                             : en:00:06:14.916
00:15:38.437                             : en:00:15:38.437
00:24:31.679                             : en:00:24:31.679
00:34:25.814                             : en:00:34:25.814
00:39:12.600                             : en:00:39:12.600
00:46:25.324                             : en:00:46:25.324
01:02:16.524                             : en:01:02:16.524
01:11:32.580                             : en:01:11:32.580

c263e6f27a29c6dd6cb287c4a855d8cc.jpg





                                                                                                                                                                                                        
                                                                                                                                                                                                                                                                                                                                                                                                                                                                                                                                                                                                                                                                                                                                                                                                                                                        
4658e96c041605812190d0ab950d6c4b.torrent (16.38 KB, 下载次数: 0)

回复

使用道具 举报

小黑屋|西西论坛

本网站所有资源来自网络,如无意中侵犯了您的权益,请发邮件至 [email protected],立即清除相关链接

GMT+8, 2021-9-19 10:56 , Processed in 0.141773 second(s), 17 queries .

Powered by Discuz! X3.2

© 2001-2013 Comsenz Inc.

快速回复 返回顶部 返回列表