西西论坛

 找回密码
 立即注册
搜索

米纳斯基死亡坠落 Mynarski.Death.Plummet.2014.SUBBED.720p.BluRay.x264-BiPOLAR 526 ...

[复制链接]
admin 发表于 2021-9-8 10:12:57 | 显示全部楼层 |阅读模式
米纳斯基死亡坠落 Mynarski.Death.Plummet.2014.SUBBED.720p.BluRay.x264-BiPOLAR 526.51MB                                                                                                                                                                                                                                                                                                                                                                                                                                                                                                                                        -->
帖子完整标题:米纳斯基死亡坠落 Mynarski.Death.Plummet.2014.SUBBED.720p.BluRay.x264-BiPOLAR 526.51MB



36c5b7b6f53ace3ad4068f43d3fde231.jpg



◎译  名 米纳斯基死亡坠落/Mynarski Death Plummet
◎片  名 Mynarski chute mortelle
◎年  代 2014
◎产  地 加拿大
◎类  别 短片
◎语  言 英语
◎上映日期 2014-09-05(多伦多电影节)
◎豆瓣评分 /10 from 0 users
◎豆瓣链接 
◎导  演 马修·兰金 Matthew Rankin
◎编  剧 马修·兰金 Matthew Rankin

◎标  签 短片 | 加拿大 | 2014 | 动画短片 | 动画 | 2010s | 動畫 | Matthew_Rankin

◎简  介

  暂无相关剧情介绍
Video
ID                                       : 1
Format                                   : AVC
Format/Info                              : Advanced Video Codec
Format profile                           :
Format settings                          : CABAC / 9 Ref Frames
Format settings, CABAC                   : Yes
Format settings, Reference frames        : 9 frames
Codec ID                                 : V_MPEG4/ISO/AVC
Duration                                 : 7 min 48 s
Bit rate                                 : 9 224 kb/s
Width                                    : 1 280 pixels
Height                                   : 720 pixels
Display aspect ratio                     : 16:9
Frame rate mode                          : Constant
Frame rate                               : 24.000 FPS
Color space                              : YUV
Chroma subsampling                       : 4:2:0
Bit depth                                : 8 bits
Scan type                                : Progressive
Bits/(Pixel*Frame)                       : 0.417
Stream size                              : 516 MiB (98%)
Writing library                          : x264 core 164 r3065 ae03d92
Encoding settings                        : cabac=1 / ref=9 / deblock=1:-3:-3 / analyse=0x3:0x133 / me=umh / subme=10 / psy=1 / psy_rd=1.00:0.15 / mixed_ref=1 / me_range=24 / chroma_me=1 / trellis=2 / 8x8dct=1 / cqm=0 / deadzone=21,11 / fast_pskip=1 / chroma_qp_offset=-3 / threads=18 / lookahead_threads=3 / sliced_threads=0 / nr=0 / decimate=1 / interlaced=0 / bluray_compat=0 / constrained_intra=0 / bframes=8 / b_pyramid=2 / b_adapt=2 / b_bias=0 / direct=3 / weightb=1 / open_gop=0 / weightp=2 / keyint=250 / keyint_min=24 / scenecut=40 / intra_refresh=0 / rc_lookahead=60 / rc=crf / mbtree=1 / crf=21.0 / qcomp=0.60 / qpmin=0 / qpmax=69 / qpstep=4 / ip_ratio=1.40 / aq=3:0.50
Language                                 : English
Default                                  : Yes
Forced                                   : No
Color range                              : Limited
Matrix coefficients                      : BT.709

Audio
ID                                       : 2
Format                                   : AC-3
Format/Info                              : Audio Coding 3
Commercial name                          : Dolby Digital
Codec ID                                 : A_AC3
Duration                                 : 7 min 48 s
Bit rate mode                            : Constant
Bit rate                                 : 192 kb/s
Channel(s)                               : 2 channels
Channel layout                           : L R
Sampling rate                            : 48.0 kHz
Frame rate                               : 31.250 FPS (1536 SPF)
Compression mode                         : Lossy
Stream size                              : 10.7 MiB (2%)
Language                                 : zxx
Service kind                             : Complete Main
Default                                  : Yes
Forced                                   : No

6f1d6e3b5c53abaf0d566a93b2630457.jpg





                                                                                                                                                                                                        
                                                                                                                                                                                                                                                                                                                                                                                                                                                                                                                                                                                                                                                                                                                                                                                                                                                        
c190bc55455dc71bc1327be8864ef568.torrent (11.06 KB, 下载次数: 0)

回复

使用道具 举报

小黑屋|西西论坛

本网站所有资源来自网络,如无意中侵犯了您的权益,请发邮件至 [email protected],立即清除相关链接

GMT+8, 2021-9-19 10:07 , Processed in 0.131263 second(s), 17 queries .

Powered by Discuz! X3.2

© 2001-2013 Comsenz Inc.

快速回复 返回顶部 返回列表