西西论坛

 找回密码
 立即注册
搜索

热狗电影 Hot.Dog.The.Movie.1983.720p.BluRay.x264-YAMG 7.16GB

[复制链接]
admin 发表于 2021-9-8 10:12:51 | 显示全部楼层 |阅读模式
热狗电影 Hot.Dog.The.Movie.1983.720p.BluRay.x264-YAMG 7.16GB                                                                                                                                                                                                                                                                                                                                                                                                                                                                                                                                        -->
帖子完整标题:热狗电影 Hot.Dog.The.Movie.1983.720p.BluRay.x264-YAMG 7.16GB



721ac16a1ddb0c77b2e1cc7b6343e5b2.jpg



◎译  名 热狗电影
◎片  名 Hot Dog ...The Movie
◎年  代 1984
◎产  地 美国
◎类  别 喜剧 / 爱情 / 运动
◎语  言 英语
◎上映日期 1984-01-13
◎豆瓣评分 /10 from 0 users
◎豆瓣链接 https://movie.douban.com/subject/1465400/
◎片  长 96 分钟
◎导  演 彼得·马克尔 Peter Markle
◎主  演 大卫·诺顿 David Naughton
       Tracy Smith Tracy Smith
       香农·特威德 Shannon Tweed
       Crystal Smith Crystal Smith
       詹姆斯·塞托 James Saito
       Robin Haynes Robin Haynes

◎标  签 1984 | 情色 | 电影院 | 运动 | 美国 | 爱情 | softcore | 电影资料馆

◎简  介

  讲述一个年轻而雄心勃勃的滑雪选手的故事,剧终时所有角色参加了一个名为“中国的下坡” (Chinese Downhill)的比赛,究竟鹿死谁手…
Video
ID                                       : 1
Format                                   : AVC
Format/Info                              : Advanced Video Codec
Format profile                           : [email protected]
Format settings                          : CABAC / 9 Ref Frames
Format settings, CABAC                   : Yes
Format settings, Reference frames        : 9 frames
Codec ID                                 : V_MPEG4/ISO/AVC
Duration                                 : 1 h 38 min
Bit rate                                 : 9 650 kb/s
Width                                    : 1 280 pixels
Height                                   : 720 pixels
Display aspect ratio                     : 16:9
Frame rate mode                          : Constant
Frame rate                               : 23.976 (24000/1001/189150) FPS
Color space                              : YUV
Chroma subsampling                       : 4:2:0
Bit depth                                : 8 bits
Scan type                                : Progressive
Bits/(Pixel*Frame)                       : 0.437
Stream size                              : 6.63 GiB (93%)
Writing library                          : x264 core 164 r3065 ae03d92
Encoding settings                        : cabac=1 / ref=9 / deblock=1:-3:-3 / analyse=0x3:0x133 / me=umh / subme=10 / psy=1 / psy_rd=1.00:0.00 / mixed_ref=1 / me_range=32 / chroma_me=1 / trellis=2 / 8x8dct=1 / cqm=0 / deadzone=21,11 / fast_pskip=0 / chroma_qp_offset=-2 / threads=22 / lookahead_threads=3 / sliced_threads=0 / nr=0 / decimate=0 / interlaced=0 / bluray_compat=0 / constrained_intra=0 / bframes=8 / b_pyramid=2 / b_adapt=2 / b_bias=0 / direct=3 / weightb=1 / open_gop=0 / weightp=2 / keyint=250 / keyint_min=23 / scenecut=40 / intra_refresh=0 / rc=crf / mbtree=0 / crf=20.0 / qcomp=0.60 / qpmin=0 / qpmax=69 / qpstep=4 / ip_ratio=1.40 / pb_ratio=1.30 / aq=3:0.60
Language                                 : English
Default                                  : Yes
Forced                                   : No
Color range                              : Limited
Matrix coefficients                      : BT.709

Audio #1
ID                                       : 2
Format                                   : AC-3
Format/Info                              : Audio Coding 3
Commercial name                          : Dolby Digital
Codec ID                                 : A_AC3
Duration                                 : 1 h 38 min
Bit rate mode                            : Constant
Bit rate                                 : 640 kb/s
Channel(s)                               : 6 channels
Channel layout                           : L R C LFE Ls Rs
Sampling rate                            : 48.0 kHz
Frame rate                               : 31.250 FPS (1536 SPF)
Compression mode                         : Lossy
Stream size                              : 451 MiB (6%)
Title                                    : English
Language                                 : English
Service kind                             : Complete Main
Default                                  : Yes
Forced                                   : No

Audio #2
ID                                       : 3
Format                                   : AAC LC
Format/Info                              : Advanced Audio Codec Low Complexity
Codec ID                                 : A_AAC-2
Duration                                 : 1 h 38 min
Bit rate                                 : 107 kb/s
Channel(s)                               : 2 channels
Channel layout                           : L R
Sampling rate                            : 48.0 kHz
Frame rate                               : 46.875 FPS (1024 SPF)
Compression mode                         : Lossy
Delay relative to video                  : 20 ms
Stream size                              : 75.2 MiB (1%)
Title                                    : Commentary
Language                                 : English
Default                                  : No
Forced                                   : No

Text #1
ID                                       : 4
Format                                   : UTF-8
Codec ID                                 : S_TEXT/UTF8
Codec ID/Info                            : UTF-8 Plain Text
Duration                                 : 1 h 37 min
Bit rate                                 : 46 b/s
Count of elements                        : 1025
Stream size                              : 33.4 KiB (0%)
Title                                    : English
Language                                 : English
Default                                  : No
Forced                                   : No

Text #2
ID                                       : 5
Format                                   : UTF-8
Codec ID                                 : S_TEXT/UTF8
Codec ID/Info                            : UTF-8 Plain Text
Duration                                 : 1 h 37 min
Bit rate                                 : 51 b/s
Count of elements                        : 1152
Stream size                              : 36.8 KiB (0%)
Title                                    : English SDH
Language                                 : English
Default                                  : No
Forced                                   : No

Text #3
ID                                       : 6
Format                                   : PGS
Muxing mode                              : zlib
Codec ID                                 : S_HDMV/PGS
Codec ID/Info                            : Picture based subtitle format used on BDs/HD-DVDs
Duration                                 : 1 h 37 min
Bit rate                                 : 32.3 kb/s
Count of elements                        : 2304
Stream size                              : 22.6 MiB (0%)
Title                                    : English SDH PGS
Language                                 : English
Default                                  : No
Forced                                   : No

Menu
00:00:00.000                             : Chapter 01
00:08:28.383                             : Chapter 02
00:15:53.452                             : Chapter 03
00:25:39.663                             : Chapter 04
00:31:23.173                             : Chapter 05
00:38:10.997                             : Chapter 06
00:48:57.643                             : Chapter 07
00:58:14.199                             : Chapter 08
01:09:50.686                             : Chapter 09
01:17:05.412                             : Chapter 10
01:22:45.294                             : Chapter 11
01:25:45.140                             : Chapter 12

3f934345ade84d55fffb328ab6115322.jpg





                                                                                                                                                                                                        
                                                                                                                                                                                                                                                                                                                                                                                                                                                                                                                                                                                                                                                                                                                                                                                                                                                        
efe9f2418f66f19a2dcfb48d85595e69.torrent (18.63 KB, 下载次数: 0)

回复

使用道具 举报

小黑屋|西西论坛

本网站所有资源来自网络,如无意中侵犯了您的权益,请发邮件至 [email protected],立即清除相关链接

GMT+8, 2021-9-19 09:57 , Processed in 0.122037 second(s), 17 queries .

Powered by Discuz! X3.2

© 2001-2013 Comsenz Inc.

快速回复 返回顶部 返回列表