西西论坛

 找回密码
 立即注册
搜索

太阳之女 Girls.of.the.Sun.2018.SUBBED.720p.BluRay.x264-USURY 3.64GB

[复制链接]
admin 发表于 2021-9-8 10:12:40 | 显示全部楼层 |阅读模式
太阳之女 Girls.of.the.Sun.2018.SUBBED.720p.BluRay.x264-USURY 3.64GB                                                                                                                                                                                                                                                                                                                                                                                                                                                                                                                                        -->
帖子完整标题:太阳之女 Girls.of.the.Sun.2018.SUBBED.720p.BluRay.x264-USURY 3.64GB



e63a73f28ed04107581f89b16385e002.jpg



◎译  名 太阳之女/Girls of the Sun/太阳的女儿(港)/太阳的少女们
◎片  名 Les filles du soleil
◎年  代 2018
◎产  地 法国,比利时,格鲁吉亚,瑞士
◎类  别 剧情 / 战争
◎语  言 法语,库尔德语,英语,阿拉伯语
◎上映日期 2018-05-12(戛纳电影节) / 2018-11-21(法国)
◎豆瓣评分 5.6/10 from 303 users
◎豆瓣链接 
◎片  长 115分钟
◎导  演 伊娃·于颂 Eva Husson
◎编  剧 伊娃·于颂 Eva Husson
◎主  演 格什菲·法拉哈尼 Golshifteh Farahani
       艾玛纽尔·贝克特 Emmanuelle Bercot
       艾文·艾哈迈德 Evin Ahmad
       贝希·贾纳蒂·阿泰 Behi Djanati Atai

◎标  签 战争 | 法国 | 女性 | 2018 | 戛纳电影节 | 剧情 | 戛纳 | 伊娃·于颂

◎简  介

  巴哈尔(歌什菲·法拉哈尼 Golshifteh Farahani 饰)是一名年轻的律师,她的家乡遭到了恐怖分子的袭击,在战火中,巴哈尔失去了丈夫,儿子也被恐怖分子囚禁成为了人质。而巴哈尔自己,同数千名和她经历一样的妇女一起被关进了监狱。依靠着自己的智慧和勇气,巴哈尔带领女人们从监狱里逃了出来,并且组织了名为“太阳的女人”的女子军队,她们向恐怖分子宣战,发誓要夺回属于她们的家园。
  
  马蒂尔德(艾玛纽尔·贝克特 Emmanuelle Bercot 饰)是一名经验丰富的战地记者,在巴哈尔进行着属于她的战争的同时,马蒂尔德一直紧紧地跟随在她身后,用镜头记录着这支军队令人动容的奋斗的姿态。

◎获奖情况

  第71届戛纳电影节 ?(2018)
  主竞赛单元金棕榈奖(提名) 伊娃·于颂
Video
ID                                       : 1
Format                                   : AVC
Format/Info                              : Advanced Video Codec
Format profile                           :
Format settings                          : CABAC / 12 Ref Frames
Format settings, CABAC                   : Yes
Format settings, Reference frames        : 12 frames
Codec ID                                 : V_MPEG4/ISO/AVC
Duration                                 : 1 h 51 min
Bit rate                                 : 4 028 kb/s
Width                                    : 1 280 pixels
Height                                   : 538 pixels
Display aspect ratio                     : 2.40:1
Frame rate mode                          : Constant
Frame rate                               : 23.976 (24000/1001/189150) FPS
Color space                              : YUV
Chroma subsampling                       : 4:2:0
Bit depth                                : 8 bits
Scan type                                : Progressive
Bits/(Pixel*Frame)                       : 0.244
Stream size                              : 3.14 GiB (86%)
Writing library                          : x264 core 164 r3065 ae03d92
Encoding settings                        : cabac=1 / ref=12 / deblock=1:-3:-3 / analyse=0x3:0x133 / me=umh / subme=10 / psy=1 / psy_rd=1.00:0.15 / mixed_ref=1 / me_range=24 / chroma_me=1 / trellis=2 / 8x8dct=1 / cqm=0 / deadzone=21,11 / fast_pskip=1 / chroma_qp_offset=-3 / threads=17 / lookahead_threads=2 / sliced_threads=0 / nr=0 / decimate=1 / interlaced=0 / bluray_compat=0 / constrained_intra=0 / bframes=8 / b_pyramid=2 / b_adapt=2 / b_bias=0 / direct=3 / weightb=1 / open_gop=0 / weightp=2 / keyint=250 / keyint_min=23 / scenecut=40 / intra_refresh=0 / rc_lookahead=60 / rc=crf / mbtree=1 / crf=15.0 / qcomp=0.60 / qpmin=0 / qpmax=69 / qpstep=4 / ip_ratio=1.40 / aq=3:0.60
Language                                 : English
Default                                  : Yes
Forced                                   : No
Color range                              : Limited
Matrix coefficients                      : BT.709

Audio
ID                                       : 2
Format                                   : AC-3
Format/Info                              : Audio Coding 3
Commercial name                          : Dolby Digital
Codec ID                                 : A_AC3
Duration                                 : 1 h 51 min
Bit rate mode                            : Constant
Bit rate                                 : 640 kb/s
Channel(s)                               : 6 channels
Channel layout                           : L R C LFE Ls Rs
Sampling rate                            : 48.0 kHz
Frame rate                               : 31.250 FPS (1536 SPF)
Compression mode                         : Lossy
Stream size                              : 511 MiB (14%)
Language                                 : French
Service kind                             : Complete Main
Default                                  : Yes
Forced                                   : No

Menu
00:00:00.000                             : en:00:00:00.000
00:11:20.471                             : en:00:11:20.471
00:19:11.734                             : en:00:19:11.734
00:30:16.732                             : en:00:30:16.732
00:38:47.033                             : en:00:38:47.033
00:50:43.916                             : en:00:50:43.916
01:00:56.653                             : en:01:00:56.653
01:09:10.688                             : en:01:09:10.688
01:19:41.819                             : en:01:19:41.819
01:29:19.354                             : en:01:29:19.354
01:42:16.839                             : en:01:42:16.839

1d3398015e132b6db66e92ceab5c49a1.jpg





                                                                                                                                                                                                        
                                                                                                                                                                                                                                                                                                                                                                                                                                                                                                                                                                                                                                                                                                                                                                                                                                                        
8e80b98fde7f640da2d6ccb89dfb08e3.torrent (18.96 KB, 下载次数: 0)

回复

使用道具 举报

小黑屋|西西论坛

本网站所有资源来自网络,如无意中侵犯了您的权益,请发邮件至 [email protected],立即清除相关链接

GMT+8, 2021-9-19 08:56 , Processed in 0.114114 second(s), 17 queries .

Powered by Discuz! X3.2

© 2001-2013 Comsenz Inc.

快速回复 返回顶部 返回列表