西西论坛

 找回密码
 立即注册
搜索

明天整个世界 And.Tomorrow.the.Entire.World.2020.720p.BluRay.x264-USURY 3.28GB .. ...

[复制链接]
admin 发表于 2021-9-8 10:12:37 | 显示全部楼层 |阅读模式
明天整个世界 And.Tomorrow.the.Entire.World.2020.720p.BluRay.x264-USURY 3.28GB                                                                                                                                                                                                                                                                                                                                                                                                                                                                                                                                        -->
帖子完整标题:明天整个世界 And.Tomorrow.the.Entire.World.2020.720p.BluRay.x264-USURY 3.28GB





◎译  名 明天整个世界/And Tomorrow The Entire World
◎片  名 Und morgen die ganze Welt
◎年  代 2020
◎产  地 德国,法国
◎类  别 剧情
◎语  言 德语
◎上映日期 2020-09-10(威尼斯电影节) / 2021-03-01(德国)
◎豆瓣评分 6.2/10 from 265 users
◎豆瓣链接 
◎片  长 111分钟
◎导  演 朱丽亚·冯·海因茨 Julia von Heinz
◎编  剧 朱丽亚·冯·海因茨 Julia von Heinz
◎主  演 玛拉·昂德 Mala Emde
       诺亚·萨维德拉 Noah Saavedra
       安德烈·鲁斯特 Andreas Lust
       维多莉亚·塔拉特曼斯多夫 Victoria Trauttmansdorff
       米夏埃尔·维滕博恩 Michael Wittenborn

◎标  签 德国 | 2020 | 社会议题 | 剧情 | 德国电影 | 威尼斯电影节 | 朱丽亚·冯·海因茨 | 电影

◎简  介

  路易莎,20岁,来自优渥家庭,法律专业一年级学生。有感于德国愈发右倾的环境和民粹政党的崛起,她与几个朋友联合起来共同反对新右翼活动。不久后,她结识了阿尔法和莱纳,这两人认为暴力是抗争的合理手段。事情随后愈演愈烈,路易莎面临着艰难的抉择...

◎获奖情况

  第77届威尼斯电影节 ?(2020)
  主竞赛单元金狮奖(提名) 朱丽亚·冯·海因茨
  酷儿狮奖(提名) 朱丽亚·冯·海因茨
Video
ID                                       : 1
Format                                   : AVC
Format/Info                              : Advanced Video Codec
Format profile                           :
Format settings                          : CABAC / 12 Ref Frames
Format settings, CABAC                   : Yes
Format settings, Reference frames        : 12 frames
Codec ID                                 : V_MPEG4/ISO/AVC
Duration                                 : 1 h 50 min
Bit rate                                 : 3 571 kb/s
Width                                    : 1 280 pixels
Height                                   : 536 pixels
Display aspect ratio                     : 2.40:1
Frame rate mode                          : Constant
Frame rate                               : 24.000 FPS
Color space                              : YUV
Chroma subsampling                       : 4:2:0
Bit depth                                : 8 bits
Scan type                                : Progressive
Bits/(Pixel*Frame)                       : 0.217
Stream size                              : 2.76 GiB (84%)
Writing library                          : x264 core 164 r3065 ae03d92
Encoding settings                        : cabac=1 / ref=12 / deblock=1:-3:-3 / analyse=0x3:0x133 / me=umh / subme=10 / psy=1 / psy_rd=1.00:0.15 / mixed_ref=1 / me_range=24 / chroma_me=1 / trellis=2 / 8x8dct=1 / cqm=0 / deadzone=21,11 / fast_pskip=1 / chroma_qp_offset=-3 / threads=17 / lookahead_threads=2 / sliced_threads=0 / nr=0 / decimate=1 / interlaced=0 / bluray_compat=0 / constrained_intra=0 / bframes=8 / b_pyramid=2 / b_adapt=2 / b_bias=0 / direct=3 / weightb=1 / open_gop=0 / weightp=2 / keyint=250 / keyint_min=24 / scenecut=40 / intra_refresh=0 / rc_lookahead=60 / rc=crf / mbtree=1 / crf=17.0 / qcomp=0.60 / qpmin=0 / qpmax=69 / qpstep=4 / ip_ratio=1.40 / aq=3:0.60
Language                                 : English
Default                                  : Yes
Forced                                   : No
Color range                              : Limited
Matrix coefficients                      : BT.709

Audio
ID                                       : 2
Format                                   : AC-3
Format/Info                              : Audio Coding 3
Commercial name                          : Dolby Digital
Codec ID                                 : A_AC3
Duration                                 : 1 h 50 min
Bit rate mode                            : Constant
Bit rate                                 : 640 kb/s
Channel(s)                               : 6 channels
Channel layout                           : L R C LFE Ls Rs
Sampling rate                            : 48.0 kHz
Frame rate                               : 31.250 FPS (1536 SPF)
Compression mode                         : Lossy
Stream size                              : 507 MiB (15%)
Language                                 : German
Service kind                             : Complete Main
Default                                  : Yes
Forced                                   : No

Text #1
ID                                       : 3
Format                                   : UTF-8
Codec ID                                 : S_TEXT/UTF8
Codec ID/Info                            : UTF-8 Plain Text
Duration                                 : 1 h 45 min
Bit rate                                 : 42 b/s
Count of elements                        : 1066
Stream size                              : 33.0 KiB (0%)
Title                                    : English
Language                                 : English
Default                                  : Yes
Forced                                   : Yes

Text #2
ID                                       : 4
Format                                   : UTF-8
Codec ID                                 : S_TEXT/UTF8
Codec ID/Info                            : UTF-8 Plain Text
Duration                                 : 1 h 46 min
Bit rate                                 : 52 b/s
Count of elements                        : 1313
Stream size                              : 40.9 KiB (0%)
Title                                    : English SDH
Language                                 : English
Default                                  : No
Forced                                   : No

Text #3
ID                                       : 5
Format                                   : UTF-8
Codec ID                                 : S_TEXT/UTF8
Codec ID/Info                            : UTF-8 Plain Text
Duration                                 : 1 h 42 min
Bit rate                                 : 56 b/s
Count of elements                        : 1135
Stream size                              : 42.3 KiB (0%)
Title                                    : German
Language                                 : German
Default                                  : No
Forced                                   : No

Text #4
ID                                       : 6
Format                                   : UTF-8
Codec ID                                 : S_TEXT/UTF8
Codec ID/Info                            : UTF-8 Plain Text
Duration                                 : 1 h 45 min
Bit rate                                 : 67 b/s
Count of elements                        : 1406
Stream size                              : 52.6 KiB (0%)
Title                                    : German SDH
Language                                 : German
Default                                  : No
Forced                                   : No

Text #5
ID                                       : 7
Format                                   : PGS
Muxing mode                              : zlib
Codec ID                                 : S_HDMV/PGS
Codec ID/Info                            : Picture based subtitle format used on BDs/HD-DVDs
Duration                                 : 1 h 45 min
Bit rate                                 : 21.5 kb/s
Count of elements                        : 2812
Stream size                              : 16.2 MiB (0%)
Title                                    : German SDH
Language                                 : German
Default                                  : No
Forced                                   : No

Text #6
ID                                       : 8
Format                                   : UTF-8
Codec ID                                 : S_TEXT/UTF8
Codec ID/Info                            : UTF-8 Plain Text
Duration                                 : 1 h 50 min
Bit rate                                 : 38 b/s
Count of elements                        : 1064
Stream size                              : 31.2 KiB (0%)
Title                                    : Spanish
Language                                 : Spanish
Default                                  : No
Forced                                   : No

Menu
00:00:00.000                             : en:00:00:00.000
00:08:52.292                             : en:00:08:52.292
00:17:59.500                             : en:00:17:59.500
00:26:57.208                             : en:00:26:57.208
00:36:42.250                             : en:00:36:42.250
00:44:54.917                             : en:00:44:54.917
00:53:41.000                             : en:00:53:41.000
01:04:51.917                             : en:01:04:51.917
01:12:38.000                             : en:01:12:38.000
01:21:02.167                             : en:01:21:02.167
01:28:59.625                             : en:01:28:59.625
01:39:41.500                             : en:01:39:41.500
01:45:39.458                             : en:01:45:39.458





                                                                                                                                                                                                        
                                                                                                                                                                                                                                                                                                                                                                                                                                                                                                                                                                                                                                                                                                                                                                                                                                                        
1f1dcaa91f46fb59bb465c764a33d8b1.torrent (17.17 KB, 下载次数: 0)

回复

使用道具 举报

小黑屋|西西论坛

本网站所有资源来自网络,如无意中侵犯了您的权益,请发邮件至 [email protected],立即清除相关链接

GMT+8, 2021-9-19 08:57 , Processed in 0.136874 second(s), 17 queries .

Powered by Discuz! X3.2

© 2001-2013 Comsenz Inc.

快速回复 返回顶部 返回列表