西西论坛

 找回密码
 立即注册
搜索

阿飛正傳 Days.of.Being.Wild.1990.RESTORED.720p.BluRay.x264-CiNEPHiLiA 3.69GB

[复制链接]
admin 发表于 2021-9-6 11:11:37 | 显示全部楼层 |阅读模式
阿飛正傳 Days.of.Being.Wild.1990.RESTORED.720p.BluRay.x264-CiNEPHiLiA 3.69GB                                                                                                                                                                                                                                                                                                                                                                                                                                                                                                                                        -->
帖子完整标题:阿飛正傳 Days.of.Being.Wild.1990.RESTORED.720p.BluRay.x264-CiNEPHiLiA 3.69GB



3a6a895a15e6ebd205073ce0ac781416.jpg



◎译  名 阿飞正传/Days of Being Wild
◎片  名 阿飛正傳
◎年  代 1990
◎产  地 中国香港
◎类  别 剧情 / 爱情 / 犯罪
◎语  言 粤语,汉语普通话,英语,菲律宾语,上海话
◎上映日期 1990-12-15(中国香港) / 2018-06-25(中国大陆)
◎豆瓣评分 8.5/10 from 424110 users
◎豆瓣链接 
◎片  长 94分钟
◎导  演 王家卫 Kar Wai Wong
◎编  剧 王家卫 Kar Wai Wong
◎主  演 张国荣 Leslie Cheung
       张曼玉 Maggie Cheung
       刘嘉玲 Carina Lau
       刘德华 Andy Lau
       张学友 Jacky Cheung
       潘迪华 Rebecca Pan
       梁朝伟 Tony Leung Chiu Wai
       Maritoni Fernandez Maritoni Fernandez
       Tita Mu?oz Tita Mu?oz
       阿莉西亚·阿隆索 Alicia Alonzo

◎标  签 香港 | 文艺 | 爱情 | 孤独 | 经典 | 人生 | 剧情 | 1990

◎简  介

  1960年代的香港,因生母在阿飞旭仔(张国荣)长大成人过程中的缺失,他把自己优雅地比喻为“无根鸟”,对生命中遇到的每一个女人都表现得放荡不羁,售票员苏丽珍(张曼玉)和舞女咪咪(刘嘉玲)先后令他感受过温暖,可是她们也只能当当小情人。为摆脱沉重和无力感,旭仔抛下一切去南洋找寻生母。
  
  暗恋过苏丽珍且目睹过她与旭仔情感一路变化的,曾是小巡警今在跑船的超仔(刘德华)在菲律宾又遇到旭仔,是缘分也是宿命,他参与、见证了阿飞命运被改写的过程。

◎获奖情况

  第28届台北金马影展 ?(1991)
  金马奖最佳剧情片(提名)
  金马奖最佳导演 王家卫
  金马奖最佳男主角(提名) 张国荣
  金马奖最佳女主角(提名) 刘嘉玲
  金马奖最佳女配角 潘迪华
  金马奖最佳美术设计 张叔平
  金马奖最佳造型设计 张叔平
  金马奖最佳剪辑 谭家明?/?奚杰伟
  金马奖最佳音效 陈伟雄
  
  第10届香港电影金像奖 ?(1991)
  最佳电影
  最佳导演 王家卫
  最佳编剧(提名) 王家卫
  最佳男主角 张国荣
  最佳女主角(提名) 刘嘉玲
  最佳女配角(提名) 潘迪华
  最佳摄影 杜可风
  最佳剪接(提名) 谭家明
  最佳美术指导 张叔平
Video
ID                                       : 1
Format                                   : AVC
Format/Info                              : Advanced Video Codec
Format profile                           :
Format settings                          : CABAC / 8 Ref Frames
Format settings, CABAC                   : Yes
Format settings, Reference frames        : 8 frames
Codec ID                                 : V_MPEG4/ISO/AVC
Duration                                 : 1 h 35 min
Bit rate                                 : 4 901 kb/s
Width                                    : 1 280 pixels
Height                                   : 692 pixels
Display aspect ratio                     : 1.85:1
Frame rate mode                          : Constant
Frame rate                               : 23.976 (24000/1001/189150) FPS
Color space                              : YUV
Chroma subsampling                       : 4:2:0
Bit depth                                : 8 bits
Scan type                                : Progressive
Bits/(Pixel*Frame)                       : 0.231
Stream size                              : 3.26 GiB (88%)
Writing library                          : x264 core 164 r3065 ae03d92
Encoding settings                        : cabac=1 / ref=8 / deblock=1:-3:-3 / analyse=0x3:0x133 / me=umh / subme=9 / psy=1 / psy_rd=1.00:0.00 / mixed_ref=1 / me_range=24 / chroma_me=1 / trellis=2 / 8x8dct=1 / cqm=0 / deadzone=21,11 / fast_pskip=0 / chroma_qp_offset=-2 / threads=22 / lookahead_threads=2 / sliced_threads=0 / nr=0 / decimate=0 / interlaced=0 / bluray_compat=0 / constrained_intra=0 / bframes=5 / b_pyramid=2 / b_adapt=2 / b_bias=0 / direct=3 / weightb=1 / open_gop=0 / weightp=2 / keyint=250 / keyint_min=23 / scenecut=40 / intra_refresh=0 / rc_lookahead=60 / rc=crf / mbtree=0 / crf=19.0 / qcomp=0.60 / qpmin=0 / qpmax=69 / qpstep=4 / vbv_maxrate=62500 / vbv_bufsize=78125 / crf_max=0.0 / nal_hrd=none / filler=0 / ip_ratio=1.40 / pb_ratio=1.30 / aq=3:0.60
Default                                  : Yes
Forced                                   : No

Audio
ID                                       : 2
Format                                   : FLAC
Format/Info                              : Free Lossless Audio Codec
Codec ID                                 : A_FLAC
Duration                                 : 1 h 35 min
Bit rate mode                            : Variable
Bit rate                                 : 640 kb/s
Channel(s)                               : 1 channel
Channel layout                           : C
Sampling rate                            : 48.0 kHz
Frame rate                               : 11.719 FPS (4096 SPF)
Bit depth                                : 24 bits
Compression mode                         : Lossless
Stream size                              : 436 MiB (12%)
Writing library                          : libFLAC 1.3.2 (UTC 2017-01-01)
Language                                 : Chinese
Default                                  : Yes
Forced                                   : No

Text #1
ID                                       : 3
Format                                   : PGS
Muxing mode                              : zlib
Codec ID                                 : S_HDMV/PGS
Codec ID/Info                            : Picture based subtitle format used on BDs/HD-DVDs
Duration                                 : 1 h 32 min
Bit rate                                 : 28.5 kb/s
Count of elements                        : 1536
Stream size                              : 18.8 MiB (0%)
Language                                 : English
Default                                  : No
Forced                                   : No

Text #2
ID                                       : 4
Format                                   : UTF-8
Codec ID                                 : S_TEXT/UTF8
Codec ID/Info                            : UTF-8 Plain Text
Duration                                 : 1 h 32 min
Bit rate                                 : 33 b/s
Count of elements                        : 768
Stream size                              : 22.5 KiB (0%)
Language                                 : English
Default                                  : Yes
Forced                                   : Yes

Menu
00:00:00.000                             : :Chapter 01
00:04:50.165                             : :Chapter 02
00:10:35.260                             : :Chapter 03
00:14:55.728                             : :Chapter 04
00:24:43.315                             : :Chapter 05
00:25:57.097                             : :Chapter 06
00:29:00.405                             : :Chapter 07
00:36:14.631                             : :Chapter 08
00:44:55.359                             : :Chapter 09
00:48:50.553                             : :Chapter 10
00:57:57.641                             : :Chapter 11
01:10:40.820                             : :Chapter 12
01:12:09.951                             : :Chapter 13
01:19:04.782                             : :Chapter 14
01:26:20.759                             : :Chapter 15
01:29:36.830                             : :Chapter 16
01:30:42.187                             : :Chapter 17

06eed57169f51bcc7c12c384d8c5ec2a.jpg





                                                                                                                                                                                                        
                                                                                                                                                                                                                                                                                                                                                                                                                                                                                                                                                                                                                                                                                                                                                                                                                                                        
915c3a0b03d54f28c75b4212cad0ad77.torrent (19.22 KB, 下载次数: 0)

回复

使用道具 举报

小黑屋|西西论坛

本网站所有资源来自网络,如无意中侵犯了您的权益,请发邮件至 [email protected],立即清除相关链接

GMT+8, 2021-9-19 09:56 , Processed in 0.130101 second(s), 17 queries .

Powered by Discuz! X3.2

© 2001-2013 Comsenz Inc.

快速回复 返回顶部 返回列表