西西论坛

 找回密码
 立即注册
搜索

丛林巡航/丛林大逃亡 Jungle.Run.2021.720p.BluRay.x264-FREEMAN 3.07GB

[复制链接]
admin 发表于 2021-9-6 11:11:33 | 显示全部楼层 |阅读模式
丛林巡航/丛林大逃亡 Jungle.Run.2021.720p.BluRay.x264-FREEMAN 3.07GB                                                                                                                                                                                                                                                                                                                                                                                                                                                                                                                                        -->
帖子完整标题:丛林巡航/丛林大逃亡 Jungle.Run.2021.720p.BluRay.x264-FREEMAN 3.07GB



cab327074e66c4a6df90c72a087d21c7.jpg



◎译  名 丛林巡航/丛林大逃亡
◎片  名 Jungle Run
◎年  代 2021
◎产  地 美国
◎类  别 动作
◎语  言 英语
◎上映日期 2021-06-25(美国)
◎豆瓣评分 /10 from 0 users
◎豆瓣链接 
◎片  长 85分钟
◎主  演 理查德·格里克 Richard Grieco
       艾莉森·戈尔斯克 Alyson Gorske
       杰克·皮尔森 Jack Pearson

◎标  签 2021 | 冒险 | 特效如渣 | 美国 | 惊悚 | 美国电影 | 欧美电影 | 恐怖

◎简  介

  Sibling adventurers come under attack from jungle animals while searching for their missing father. As they fight back against the relentless onslaught, they soon start to realize something much more sinister is happening.
Video
ID                                       : 1
Format                                   : AVC
Format/Info                              : Advanced Video Codec
Format profile                           :
Format settings                          : CABAC / 8 Ref Frames
Format settings, CABAC                   : Yes
Format settings, Reference frames        : 8 frames
Codec ID                                 : V_MPEG4/ISO/AVC
Duration                                 : 1 h 25 min
Bit rate                                 : 4 495 kb/s
Width                                    : 1 280 pixels
Height                                   : 538 pixels
Display aspect ratio                     : 2.40:1
Frame rate mode                          : Constant
Frame rate                               : 23.976 (24000/1001/189150) FPS
Color space                              : YUV
Chroma subsampling                       : 4:2:0
Bit depth                                : 8 bits
Scan type                                : Progressive
Bits/(Pixel*Frame)                       : 0.272
Stream size                              : 2.69 GiB (87%)
Writing library                          : x264 core 164 r3065 ae03d92
Encoding settings                        : cabac=1 / ref=8 / deblock=1:-3:-3 / analyse=0x3:0x133 / me=umh / subme=9 / psy=1 / psy_rd=1.00:0.00 / mixed_ref=1 / me_range=16 / chroma_me=1 / trellis=2 / 8x8dct=1 / cqm=0 / deadzone=21,11 / fast_pskip=0 / chroma_qp_offset=-2 / threads=17 / lookahead_threads=1 / sliced_threads=0 / nr=0 / decimate=1 / interlaced=0 / bluray_compat=0 / constrained_intra=0 / bframes=3 / b_pyramid=2 / b_adapt=2 / b_bias=0 / direct=3 / weightb=1 / open_gop=0 / weightp=2 / keyint=250 / keyint_min=23 / scenecut=40 / intra_refresh=0 / rc_lookahead=60 / rc=crf / mbtree=1 / crf=17.0 / qcomp=0.60 / qpmin=0 / qpmax=69 / qpstep=4 / ip_ratio=1.40 / aq=3:1.00
Default                                  : Yes
Forced                                   : No
Color range                              : Limited
Matrix coefficients                      : BT.709

Audio
ID                                       : 2
Format                                   : AC-3
Format/Info                              : Audio Coding 3
Commercial name                          : Dolby Digital
Codec ID                                 : A_AC3
Duration                                 : 1 h 25 min
Bit rate mode                            : Constant
Bit rate                                 : 640 kb/s
Channel(s)                               : 6 channels
Channel layout                           : L R C LFE Ls Rs
Sampling rate                            : 48.0 kHz
Frame rate                               : 31.250 FPS (1536 SPF)
Compression mode                         : Lossy
Stream size                              : 392 MiB (12%)
Language                                 : English
Service kind                             : Complete Main
Default                                  : Yes
Forced                                   : No

Text #1
ID                                       : 3
Format                                   : UTF-8
Codec ID                                 : S_TEXT/UTF8
Codec ID/Info                            : UTF-8 Plain Text
Duration                                 : 40 min 58 s
Bit rate                                 : 4 b/s
Count of elements                        : 41
Stream size                              : 1.34 KiB (0%)
Language                                 : English
Default                                  : Yes
Forced                                   : Yes

Text #2
ID                                       : 4
Format                                   : PGS
Muxing mode                              : zlib
Codec ID                                 : S_HDMV/PGS
Codec ID/Info                            : Picture based subtitle format used on BDs/HD-DVDs
Duration                                 : 40 min 58 s
Bit rate                                 : 2 261 b/s
Count of elements                        : 81
Stream size                              : 679 KiB (0%)
Language                                 : English
Default                                  : No
Forced                                   : No

Text #3
ID                                       : 5
Format                                   : PGS
Muxing mode                              : zlib
Codec ID                                 : S_HDMV/PGS
Codec ID/Info                            : Picture based subtitle format used on BDs/HD-DVDs
Duration                                 : 40 min 36 s
Bit rate                                 : 2 549 b/s
Count of elements                        : 79
Stream size                              : 758 KiB (0%)
Language                                 : German
Default                                  : No
Forced                                   : No

Menu
00:00:00.000                             : en:00:00:00.000
00:03:52.858                             : en:00:03:52.858
00:10:09.692                             : en:00:10:09.692
00:21:12.313                             : en:00:21:12.313
00:30:02.259                             : en:00:30:02.259
00:40:14.078                             : en:00:40:14.078
00:50:44.166                             : en:00:50:44.166
01:02:10.435                             : en:01:02:10.435
01:11:01.591                             : en:01:11:01.591
01:21:57.538                             : en:01:21:57.538

38a716a366f63eebea9b1888780e09ca.jpg





                                                                                                                                                                                                        
                                                                                                                                                                                                                                                                                                                                                                                                                                                                                                                                                                                                                                                                                                                                                                                                                                                        
6b5bdec12e2587e9a7145aade7252c30.torrent (16.05 KB, 下载次数: 0)

回复

使用道具 举报

小黑屋|西西论坛

本网站所有资源来自网络,如无意中侵犯了您的权益,请发邮件至 [email protected],立即清除相关链接

GMT+8, 2021-9-19 09:29 , Processed in 0.134599 second(s), 17 queries .

Powered by Discuz! X3.2

© 2001-2013 Comsenz Inc.

快速回复 返回顶部 返回列表