西西论坛

 找回密码
 立即注册
搜索

旺角卡門 As.Tears.Go.By.1988.RESTORED.720p.BluRay.x264-CiNEPHiLiA 4.52GB

[复制链接]
admin 发表于 2021-9-6 11:11:27 | 显示全部楼层 |阅读模式
旺角卡門 As.Tears.Go.By.1988.RESTORED.720p.BluRay.x264-CiNEPHiLiA 4.52GB                                                                                                                                                                                                                                                                                                                                                                                                                                                                                                                                        -->
帖子完整标题:旺角卡門 As.Tears.Go.By.1988.RESTORED.720p.BluRay.x264-CiNEPHiLiA 4.52GB





◎译  名 旺角卡门/As Tears Go By/热血男儿(台)
◎片  名 旺角卡門
◎年  代 1988
◎产  地 中国香港
◎类  别 剧情 / 爱情 / 犯罪
◎语  言 粤语
◎上映日期 1988-06-09(中国香港)
◎豆瓣评分 7.8/10 from 172524 users
◎豆瓣链接 
◎片  长 102 分钟
◎导  演 王家卫 Kar Wai Wong
◎编  剧 王家卫 Kar Wai Wong
◎主  演 刘德华 Andy Lau
       张学友 Jacky Cheung
       张曼玉 Maggie Cheung
       万梓良 Alex Man
       林蛟 Kau Lam
       黄斌 Ronald Wong
       陈志辉 Chi Fai Chan
       江道海 To-hoi Kong
       张叔平 William Chang
       黄拔景 Huang Pa-Ching
       邓泰和 Tai Wo Tang
       陈文妤 Man-Hiu Chan
       张荣祥 Cheung Wing-Cheung
       秦贵宝 Kwai Po Chun
       刘伟强 Andrew Lau
       简达华 Tat-Wah Gan
       许芬 Fan Hui
       江浪 Kong Long
       黄莺 Canary Wong
       马玉成 Yuk-Sing Ma
       白茵 Yan Pak
       甘山 San Gam

◎标  签 王家卫 | 香港 | 张曼玉 | 刘德华 | 香港电影 | 爱情 | 黑帮 | 旺角卡门

◎简  介

  香港九龙区旺角混混阿杰(刘德华)做事利落重情义,颇有老大风范,为了照顾做事冲动又好面子的小弟乌蝇(张学友),他不停地在各种大小麻烦中周旋,甚至不惜为乌蝇与黑道狠角色(万梓良)结仇。
  
  阿杰表妹阿娥(张曼玉)前来旺角看病暂住他家,两人慢慢互生情愫,但因为担心自己的身份最终会给阿娥带来伤害,阿杰选择了将心事埋藏。待阿杰明白真情抑压不住想对命运做番抵抗时,乌蝇却再次因好面子面临生命危险,于是一道友情与爱情必选其一的难题重又摆在阿杰面前。

◎获奖情况

  第25届台北金马影展 ?(1988)
  金马奖最佳导演(提名) 王家卫
  金马奖最佳美术设计(提名) 张叔平
  
  第8届香港电影金像奖 ?(1989)
  最佳电影(提名)
  最佳导演(提名) 王家卫
  最佳男主角(提名) 刘德华
  最佳女主角(提名) 张曼玉
  最佳男配角 张学友
  最佳男配角(提名) 万梓良
  最佳摄影(提名) 刘伟强
  最佳剪接(提名) 蒋彼得
  最佳美术指导 张叔平
  最佳原创电影音乐(提名) 钟定一
Video
ID                                       : 1
Format                                   : AVC
Format/Info                              : Advanced Video Codec
Format profile                           :
Format settings                          : CABAC / 8 Ref Frames
Format settings, CABAC                   : Yes
Format settings, Reference frames        : 8 frames
Codec ID                                 : V_MPEG4/ISO/AVC
Duration                                 : 1 h 39 min
Bit rate                                 : 5 824 kb/s
Width                                    : 1 280 pixels
Height                                   : 692 pixels
Display aspect ratio                     : 1.85:1
Frame rate mode                          : Constant
Frame rate                               : 23.976 (24000/1001/189150) FPS
Color space                              : YUV
Chroma subsampling                       : 4:2:0
Bit depth                                : 8 bits
Scan type                                : Progressive
Bits/(Pixel*Frame)                       : 0.274
Stream size                              : 4.05 GiB (89%)
Writing library                          : x264 core 164 r3065 ae03d92
Encoding settings                        : cabac=1 / ref=8 / deblock=1:-3:-3 / analyse=0x3:0x133 / me=umh / subme=9 / psy=1 / psy_rd=1.00:0.00 / mixed_ref=1 / me_range=24 / chroma_me=1 / trellis=2 / 8x8dct=1 / cqm=0 / deadzone=21,11 / fast_pskip=0 / chroma_qp_offset=-2 / threads=22 / lookahead_threads=2 / sliced_threads=0 / nr=0 / decimate=0 / interlaced=0 / bluray_compat=0 / constrained_intra=0 / bframes=5 / b_pyramid=2 / b_adapt=2 / b_bias=0 / direct=3 / weightb=1 / open_gop=0 / weightp=2 / keyint=250 / keyint_min=23 / scenecut=40 / intra_refresh=0 / rc_lookahead=60 / rc=crf / mbtree=0 / crf=17.0 / qcomp=0.60 / qpmin=0 / qpmax=69 / qpstep=4 / vbv_maxrate=62500 / vbv_bufsize=78125 / crf_max=0.0 / nal_hrd=none / filler=0 / ip_ratio=1.40 / pb_ratio=1.30 / aq=3:0.60
Default                                  : Yes
Forced                                   : No

Audio
ID                                       : 2
Format                                   : FLAC
Format/Info                              : Free Lossless Audio Codec
Codec ID                                 : A_FLAC
Duration                                 : 1 h 39 min
Bit rate mode                            : Variable
Bit rate                                 : 676 kb/s
Channel(s)                               : 1 channel
Channel layout                           : C
Sampling rate                            : 48.0 kHz
Frame rate                               : 11.719 FPS (4096 SPF)
Bit depth                                : 24 bits
Compression mode                         : Lossless
Stream size                              : 481 MiB (10%)
Writing library                          : libFLAC 1.3.2 (UTC 2017-01-01)
Language                                 : Chinese
Default                                  : Yes
Forced                                   : No

Text #1
ID                                       : 3
Format                                   : PGS
Muxing mode                              : zlib
Codec ID                                 : S_HDMV/PGS
Codec ID/Info                            : Picture based subtitle format used on BDs/HD-DVDs
Duration                                 : 1 h 32 min
Bit rate                                 : 36.6 kb/s
Count of elements                        : 1926
Stream size                              : 24.3 MiB (1%)
Language                                 : English
Default                                  : No
Forced                                   : No

Text #2
ID                                       : 4
Format                                   : UTF-8
Codec ID                                 : S_TEXT/UTF8
Codec ID/Info                            : UTF-8 Plain Text
Duration                                 : 1 h 32 min
Bit rate                                 : 43 b/s
Count of elements                        : 963
Stream size                              : 29.3 KiB (0%)
Language                                 : English
Default                                  : Yes
Forced                                   : Yes

Menu
00:00:00.000                             : :Chapter 01
00:08:19.958                             : :Chapter 02
00:15:13.621                             : :Chapter 03
00:18:25.688                             : :Chapter 04
00:23:00.546                             : :Chapter 05
00:28:03.849                             : :Chapter 06
00:29:15.337                             : :Chapter 07
00:33:14.492                             : :Chapter 08
00:40:59.457                             : :Chapter 09
00:44:04.267                             : :Chapter 10
00:47:52.661                             : :Chapter 11
00:57:14.681                             : :Chapter 12
01:06:18.975                             : :Chapter 13
01:13:46.631                             : :Chapter 14
01:25:18.530                             : :Chapter 15
01:29:40.500                             : :Chapter 16
01:34:33.084                             : :Chapter 17

5dbe63279fd11fa494e622062e4685dc.jpg





                                                                                                                                                                                                        
                                                                                                                                                                                                                                                                                                                                                                                                                                                                                                                                                                                                                                                                                                                                                                                                                                                        
b99000bc1eeed53f94fdc76d126b0f36.torrent (23.38 KB, 下载次数: 0)

回复

使用道具 举报

小黑屋|西西论坛

本网站所有资源来自网络,如无意中侵犯了您的权益,请发邮件至 [email protected],立即清除相关链接

GMT+8, 2021-9-19 09:03 , Processed in 0.119272 second(s), 17 queries .

Powered by Discuz! X3.2

© 2001-2013 Comsenz Inc.

快速回复 返回顶部 返回列表