西西论坛

 找回密码
 立即注册
搜索

南街奇遇 Pickup.on.South.Street.1953.REMASTERED.720p.BluRay.x264-ORBS 3.33GB

[复制链接]
admin 发表于 2021-9-6 11:11:23 | 显示全部楼层 |阅读模式
南街奇遇 Pickup.on.South.Street.1953.REMASTERED.720p.BluRay.x264-ORBS 3.33GB                                                                                                                                                                                                                                                                                                                                                                                                                                                                                                                                        -->
帖子完整标题:南街奇遇 Pickup.on.South.Street.1953.REMASTERED.720p.BluRay.x264-ORBS 3.33GB





◎译  名 南街奇遇/Blaze of Glory/血洒黑地狱
◎片  名 Pickup on South Street
◎年  代 1953
◎产  地 美国
◎类  别 惊悚 / 黑色电影
◎语  言 英语
◎上映日期 1953-05-29
◎豆瓣评分 7.4/10 from 1256 users
◎豆瓣链接 
◎片  长 80 分钟
◎导  演 塞缪尔·富勒 Samuel Fuller
◎编  剧 塞缪尔·富勒 Samuel Fuller / 德怀特·泰勒 Dwight Taylor
◎主  演 理查德·威德马克 Richard Widmark
       简·皮特斯 Jean Peters
       瑟尔玛·瑞特 Thelma Ritter
       马尔温·维 Murvyn Vye
       理查德·基利 Richard Kiley

◎标  签 美国 | 塞缪尔·富勒 | 黑色电影 | 1953 | 1950s | 黑色 | Samuel_Fuller | CC

◎简  介

  美国B级片教父塞缪尔·富勒作品,1953年第18届威尼斯电影节铜狮奖。
  
  警察,小偷,电影制作人被阴错阳差地搞在了一起……最后还惹出了跟国家机密有关的乱子。主人公只是想拍电影,却陷入现实的奇遇之中,最后从中领悟生活与电影的有趣关系。

◎获奖情况

  第26届奥斯卡金像奖 ?(1954)
  最佳女配角(提名) 瑟尔玛·瑞特
  
  第14届威尼斯电影节 ?(1953)
  主竞赛单元金狮奖(提名) 塞缪尔·富勒
Video
ID                                       : 1
Format                                   : AVC
Format/Info                              : Advanced Video Codec
Format profile                           :
Format settings                          : CABAC / 12 Ref Frames
Format settings, CABAC                   : Yes
Format settings, Reference frames        : 12 frames
Codec ID                                 : V_MPEG4/ISO/AVC
Duration                                 : 1 h 20 min
Bit rate                                 : 5 354 kb/s
Width                                    : 958 pixels
Height                                   : 720 pixels
Display aspect ratio                     : 4:3
Frame rate mode                          : Constant
Frame rate                               : 23.976 (24000/1001/189150) FPS
Color space                              : YUV
Chroma subsampling                       : 4:2:0
Bit depth                                : 8 bits
Scan type                                : Progressive
Bits/(Pixel*Frame)                       : 0.324
Stream size                              : 3.02 GiB (91%)
Writing library                          : x264 core 164 r3065 ae03d92
Encoding settings                        : cabac=1 / ref=12 / deblock=1:-3:-3 / analyse=0x3:0x133 / me=umh / subme=10 / psy=1 / psy_rd=1.50:0.15 / mixed_ref=1 / me_range=24 / chroma_me=1 / trellis=2 / 8x8dct=1 / cqm=0 / deadzone=21,11 / fast_pskip=0 / chroma_qp_offset=-3 / threads=22 / lookahead_threads=3 / sliced_threads=0 / nr=0 / decimate=0 / interlaced=0 / bluray_compat=0 / constrained_intra=0 / bframes=8 / b_pyramid=2 / b_adapt=2 / b_bias=0 / direct=3 / weightb=1 / open_gop=0 / weightp=2 / keyint=250 / keyint_min=23 / scenecut=40 / intra_refresh=0 / rc_lookahead=60 / rc=crf / mbtree=1 / crf=19.0 / qcomp=0.60 / qpmin=0 / qpmax=69 / qpstep=4 / ip_ratio=1.40 / aq=3:0.50
Default                                  : Yes
Forced                                   : No
Color range                              : Limited
Matrix coefficients                      : BT.709

Audio
ID                                       : 2
Format                                   : FLAC
Format/Info                              : Free Lossless Audio Codec
Codec ID                                 : A_FLAC
Duration                                 : 1 h 20 min
Bit rate mode                            : Variable
Bit rate                                 : 540 kb/s
Channel(s)                               : 1 channel
Channel layout                           : C
Sampling rate                            : 48.0 kHz
Frame rate                               : 11.719 FPS (4096 SPF)
Bit depth                                : 24 bits
Compression mode                         : Lossless
Stream size                              : 311 MiB (9%)
Writing library                          : libFLAC 1.3.3 (UTC 2019-08-04)
Language                                 : English
Default                                  : Yes
Forced                                   : No

Text
ID                                       : 3
Format                                   : PGS
Muxing mode                              : zlib
Codec ID                                 : S_HDMV/PGS
Codec ID/Info                            : Picture based subtitle format used on BDs/HD-DVDs
Duration                                 : 1 h 18 min
Bit rate                                 : 53.8 kb/s
Count of elements                        : 2004
Stream size                              : 30.1 MiB (1%)
Title                                    : SDH
Language                                 : English
Default                                  : No
Forced                                   : No

Menu
00:00:00.000                             : Chapter 01
00:06:14.874                             : Chapter 02
00:08:51.906                             : Chapter 03
00:14:41.798                             : Chapter 04
00:17:41.686                             : Chapter 05
00:21:30.206                             : Chapter 06
00:24:05.527                             : Chapter 07
00:27:24.893                             : Chapter 08
00:35:18.950                             : Chapter 09
00:43:04.248                             : Chapter 10
00:47:20.880                             : Chapter 11
00:49:43.606                             : Chapter 12
00:55:01.131                             : Chapter 13
00:58:09.861                             : Chapter 14
01:01:49.456                             : Chapter 15
01:04:08.219                             : Chapter 16
01:09:55.108                             : Chapter 17
01:12:57.832                             : Chapter 18
01:15:12.216                             : Chapter 19
01:19:09.995                             : Chapter 20
01:20:37.750                             : Chapter 21





                                                                                                                                                                                                        
                                                                                                                                                                                                                                                                                                                                                                                                                                                                                                                                                                                                                                                                                                                                                                                                                                                        
ae2406b02098a47f138586cc473559cd.torrent (17.41 KB, 下载次数: 0)

回复

使用道具 举报

小黑屋|西西论坛

本网站所有资源来自网络,如无意中侵犯了您的权益,请发邮件至 [email protected],立即清除相关链接

GMT+8, 2021-9-19 10:12 , Processed in 0.103925 second(s), 17 queries .

Powered by Discuz! X3.2

© 2001-2013 Comsenz Inc.

快速回复 返回顶部 返回列表