西西论坛

 找回密码
 立即注册
搜索

镜子 Mirror.1975.REMASTERED.720p.BluRay.x264-USURY 7.31GB

[复制链接]
admin 发表于 2021-9-5 10:40:36 | 显示全部楼层 |阅读模式
镜子 Mirror.1975.REMASTERED.720p.BluRay.x264-USURY 7.31GB                                                                                                                                                                                                                                                                                                                                                                                                                                                                                                                                        -->
帖子完整标题:镜子 Mirror.1975.REMASTERED.720p.BluRay.x264-USURY 7.31GB



bd701d0ee96c521793ffc073f3b20c3b.jpg



◎译  名 镜子/The Mirror/Zerkalo/写真
◎片  名 Зеркало
◎年  代 1975
◎产  地 苏联
◎类  别 剧情 / 传记 / 历史 / 战争
◎语  言 俄语,西班牙语
◎上映日期 1975-03-07(苏联)
◎豆瓣评分 9.0/10 from 23137 users
◎豆瓣链接 
◎片  长 108 分钟
◎导  演 安德烈·塔可夫斯基 Andrei Tarkovsky
◎编  剧 亚历山大·米沙林 Aleksandr Misharin / 安德烈·塔可夫斯基 Andrei Tarkovsky
◎主  演 玛格丽特·捷列霍娃 Margarita Terekhova
       因诺肯季·斯莫克图诺夫斯基 Innokenty Smoktunovsky
       奥列格·扬科夫斯基 Oleg Yankovskiy
       菲利普?扬科夫斯基 Filipp Yankovsky
       伊格纳特·丹尼尔采夫 Ignat Daniltsev
       尼古拉·格林科 Nikolai Grinko
       阿拉·基米多娃 Alla Demidova
       尤里·纳扎罗夫 Yuriy Nazarov
       安纳托利·索洛尼岑 Anatoliy Solonitsyn
       亚历山大·米沙林 Aleksandr Misharin

◎标  签 苏联 | 文艺 | 传记 | 大师 | 经典 | 1975 | Andrei.Tarkovsky | 剧情

◎简  介

  本片是导演安德烈·塔科夫斯基(Andrei Tarkovsky)的一部自传体电影。幼年的塔科夫斯基随着母亲(玛格瑞塔·泰瑞柯娃 Margarita Terekhova 饰)去亲戚家借钱,他独自在一个陌生的房间里发现了一面镜子,并通过镜子审视自己,在巴赫的音乐中,塔可夫斯基的回忆慢慢带出了一系列的事件:电视上在播报一个口吃的年轻人通过催眠治痊了自己;一个被家庭忽视的妻子遇上一位迷路的乡村医生,两人之间产生若即若离的关系;一个未曾露面的叙述者与前妻在争吵;一个早熟的年轻人备受军事指导员的呵责。这些毫无关联的片段式回忆通过镜子串联起来,展现了导演对时间、历史、生活、土地、梦境等意象的哲学思考。
  
  导演的母亲在影片中扮演艺术家的母亲;他的父亲,一位著名的俄罗斯诗人,在画外音中朗读自己的诗作。
Video
ID                                       : 1
Format                                   : AVC
Format/Info                              : Advanced Video Codec
Format profile                           :
Format settings                          : CABAC / 11 Ref Frames
Format settings, CABAC                   : Yes
Format settings, Reference frames        : 11 frames
Codec ID                                 : V_MPEG4/ISO/AVC
Duration                                 : 1 h 46 min
Bit rate                                 : 9 185 kb/s
Width                                    : 986 pixels
Height                                   : 720 pixels
Display aspect ratio                     : 4:3
Frame rate mode                          : Constant
Frame rate                               : 23.976 (24000/1001/189150) FPS
Color space                              : YUV
Chroma subsampling                       : 4:2:0
Bit depth                                : 8 bits
Scan type                                : Progressive
Bits/(Pixel*Frame)                       : 0.540
Stream size                              : 6.86 GiB (94%)
Writing library                          : x264 core 164 r3065 ae03d92
Encoding settings                        : cabac=1 / ref=11 / deblock=1:-3:-3 / analyse=0x3:0x133 / me=umh / subme=10 / psy=1 / psy_rd=1.00:0.15 / mixed_ref=1 / me_range=24 / chroma_me=1 / trellis=2 / 8x8dct=1 / cqm=0 / deadzone=21,11 / fast_pskip=1 / chroma_qp_offset=-3 / threads=18 / lookahead_threads=3 / sliced_threads=0 / nr=0 / decimate=1 / interlaced=0 / bluray_compat=0 / constrained_intra=0 / bframes=8 / b_pyramid=2 / b_adapt=2 / b_bias=0 / direct=3 / weightb=1 / open_gop=0 / weightp=2 / keyint=250 / keyint_min=23 / scenecut=40 / intra_refresh=0 / rc_lookahead=60 / rc=crf / mbtree=1 / crf=17.0 / qcomp=0.60 / qpmin=0 / qpmax=69 / qpstep=4 / ip_ratio=1.40 / aq=3:0.50
Language                                 : English
Default                                  : Yes
Forced                                   : No

Audio
ID                                       : 2
Format                                   : FLAC
Format/Info                              : Free Lossless Audio Codec
Codec ID                                 : A_FLAC
Duration                                 : 1 h 46 min
Bit rate mode                            : Variable
Bit rate                                 : 593 kb/s
Channel(s)                               : 1 channel
Channel layout                           : C
Sampling rate                            : 48.0 kHz
Frame rate                               : 11.719 FPS (4096 SPF)
Bit depth                                : 24 bits
Compression mode                         : Lossless
Stream size                              : 453 MiB (6%)
Writing library                          : libFLAC 1.2.1 (UTC 2007-09-17)
Language                                 : Russian
Default                                  : Yes
Forced                                   : No

Text #1
ID                                       : 3
Format                                   : UTF-8
Codec ID                                 : S_TEXT/UTF8
Codec ID/Info                            : UTF-8 Plain Text
Duration                                 : 1 h 46 min
Bit rate                                 : 35 b/s
Count of elements                        : 846
Stream size                              : 27.8 KiB (0%)
Title                                    : English
Language                                 : English
Default                                  : Yes
Forced                                   : Yes

Text #2
ID                                       : 4
Format                                   : PGS
Muxing mode                              : zlib
Codec ID                                 : S_HDMV/PGS
Codec ID/Info                            : Picture based subtitle format used on BDs/HD-DVDs
Duration                                 : 1 h 46 min
Bit rate                                 : 8 547 b/s
Count of elements                        : 1693
Stream size                              : 6.51 MiB (0%)
Title                                    : English
Language                                 : English
Default                                  : No
Forced                                   : No

Menu
00:00:00.000                             : en:00:00:00.000
00:04:40.864                             : en:00:04:40.864
00:06:22.007                             : en:00:06:22.007
00:12:13.274                             : en:00:12:13.274
00:14:37.502                             : en:00:14:37.502
00:17:20.122                             : en:00:17:20.122
00:22:53.664                             : en:00:22:53.664
00:35:07.022                             : en:00:35:07.022
00:40:56.454                             : en:00:40:56.454
00:52:32.983                             : en:00:52:32.983
01:01:45.368                             : en:01:01:45.368
01:06:47.545                             : en:01:06:47.545
01:21:04.735                             : en:01:21:04.735
01:27:39.045                             : en:01:27:39.045
01:34:52.562                             : en:01:34:52.562
01:37:50.114                             : en:01:37:50.114
01:41:25.663                             : en:01:41:25.663

d1f887fa15c8f668f9ad8e229c683e4c.jpg





                                                                                                                                                                                                        
                                                                                                                                                                                                                                                                                                                                                                                                                                                                                                                                                                                                                                                                                                                                                                                                                                                        
605625ed5eb65c1470e1fdde071419b8.torrent (19.01 KB, 下载次数: 0)

回复

使用道具 举报

小黑屋|西西论坛

本网站所有资源来自网络,如无意中侵犯了您的权益,请发邮件至 [email protected],立即清除相关链接

GMT+8, 2021-9-19 10:28 , Processed in 0.132965 second(s), 17 queries .

Powered by Discuz! X3.2

© 2001-2013 Comsenz Inc.

快速回复 返回顶部 返回列表