西西论坛

 找回密码
 立即注册
搜索

同窗的爱 Show.Me.Love.1998.720p.BluRay.x264-USURY 3.19GB

[复制链接]
admin 发表于 2021-9-4 12:51:42 | 显示全部楼层 |阅读模式
同窗的爱 Show.Me.Love.1998.720p.BluRay.x264-USURY 3.19GB                                                                                                                                                                                                                                                                                                                                                                                                                                                                                                                                        -->
帖子完整标题:同窗的爱 Show.Me.Love.1998.720p.BluRay.x264-USURY 3.19GB



bf04c875eb64214b0fb25861b4a88331.jpg



◎译  名 同窗的爱/Show Me Love/同窗之爱/对面的女孩看过来/小镇压春情
◎片  名 Fucking ?m?l
◎年  代 1998
◎产  地 瑞典,丹麦
◎类  别 剧情 / 喜剧 / 爱情 / 同性
◎语  言 瑞典语
◎上映日期 1998-10-23(瑞典)
◎豆瓣评分 7.7/10 from 7635 users
◎豆瓣链接 
◎片  长 89分钟
◎导  演 鲁卡斯·穆迪森 Lukas Moodysson
◎编  剧 鲁卡斯·穆迪森 Lukas Moodysson
◎主  演 亚历桑德拉·达尔斯托姆 Alexandra Dahlstr?m
       瑞贝卡·里尔杰伯格 Rebecka Liljeberg
       Josefine Nyberg Josefine Nyberg
       Lisa Skagerstam Lisa Skagerstam
       Axel Widegren Axel Widegren
       Stefan H?rberg Stefan H?rberg
       Daniel Teider Daniel Teider

◎标  签 瑞典 | Les | 青春 | 瑞典电影 | 同志 | 同性 | 爱情 | Lesbian

◎简  介

  瑞典小镇,两名情窦初开的花季少女。影片开始在安妮(瑞贝卡·里尔杰伯格 Rebecka Liljeberg饰)写下的生日愿望中展开,内向自闭的她把这个秘密一直封存在自己的电脑中。在学校里,她也觉得自己没有真正的朋友,直到她转校来到伊琳(亚历桑德拉·达尔斯托姆 Alexandra Dahlstr?m饰)的班上。外向叛逆的伊琳美丽早熟,身边总是围绕着一群讨好她的女生跟一堆追求她的男生。安妮一直默默的注视着她,暗暗把伊琳作为自己的爱恋对象。在生日聚会当天,大家发现了安妮的秘密——希望伊琳可以爱上她。伊琳因为一个赌注真的亲吻了安妮,两人的关系发生了微妙的变化。她们之间这纯真的爱情,是否能够抵过父母的质问与同学的嘲弄,终可挽着双手、昂首挺胸地走出人群呢……

◎获奖情况

  第49届柏林国际电影节 ?(1999)
  泰迪熊奖最佳电影 鲁卡斯·穆迪森
Video
ID                                       : 1
Format                                   : AVC
Format/Info                              : Advanced Video Codec
Format profile                           :
Format settings                          : CABAC / 9 Ref Frames
Format settings, CABAC                   : Yes
Format settings, Reference frames        : 9 frames
Codec ID                                 : V_MPEG4/ISO/AVC
Duration                                 : 1 h 25 min
Bit rate                                 : 4 636 kb/s
Width                                    : 1 280 pixels
Height                                   : 694 pixels
Display aspect ratio                     : 1.85:1
Frame rate mode                          : Constant
Frame rate                               : 25.000 FPS
Color space                              : YUV
Chroma subsampling                       : 4:2:0
Bit depth                                : 8 bits
Scan type                                : Progressive
Bits/(Pixel*Frame)                       : 0.209
Stream size                              : 2.77 GiB (87%)
Writing library                          : x264 core 164 r3065 ae03d92
Encoding settings                        : cabac=1 / ref=9 / deblock=1:-3:-3 / analyse=0x3:0x133 / me=umh / subme=10 / psy=1 / psy_rd=1.00:0.15 / mixed_ref=1 / me_range=24 / chroma_me=1 / trellis=2 / 8x8dct=1 / cqm=0 / deadzone=21,11 / fast_pskip=1 / chroma_qp_offset=-3 / threads=18 / lookahead_threads=3 / sliced_threads=0 / nr=0 / decimate=1 / interlaced=0 / bluray_compat=0 / constrained_intra=0 / bframes=8 / b_pyramid=2 / b_adapt=2 / b_bias=0 / direct=3 / weightb=1 / open_gop=0 / weightp=2 / keyint=250 / keyint_min=25 / scenecut=40 / intra_refresh=0 / rc_lookahead=60 / rc=crf / mbtree=1 / crf=17.0 / qcomp=0.60 / qpmin=0 / qpmax=69 / qpstep=4 / ip_ratio=1.40 / aq=3:0.50
Language                                 : English
Default                                  : Yes
Forced                                   : No
Color range                              : Limited
Matrix coefficients                      : BT.709

Audio
ID                                       : 2
Format                                   : AC-3
Format/Info                              : Audio Coding 3
Commercial name                          : Dolby Digital
Codec ID                                 : A_AC3
Duration                                 : 1 h 25 min
Bit rate mode                            : Constant
Bit rate                                 : 640 kb/s
Channel(s)                               : 6 channels
Channel layout                           : L R C LFE Ls Rs
Sampling rate                            : 48.0 kHz
Frame rate                               : 31.250 FPS (1536 SPF)
Compression mode                         : Lossy
Stream size                              : 391 MiB (12%)
Language                                 : Swedish
Service kind                             : Complete Main
Default                                  : Yes
Forced                                   : No

Text #1
ID                                       : 3
Format                                   : UTF-8
Codec ID                                 : S_TEXT/UTF8
Codec ID/Info                            : UTF-8 Plain Text
Duration                                 : 1 h 22 min
Bit rate                                 : 51 b/s
Count of elements                        : 792
Stream size                              : 30.9 KiB (0%)
Title                                    : English
Language                                 : English
Default                                  : Yes
Forced                                   : Yes

Text #2
ID                                       : 4
Format                                   : PGS
Muxing mode                              : zlib
Codec ID                                 : S_HDMV/PGS
Codec ID/Info                            : Picture based subtitle format used on BDs/HD-DVDs
Duration                                 : 1 h 22 min
Bit rate                                 : 15.2 kb/s
Count of elements                        : 1536
Stream size                              : 8.94 MiB (0%)
Title                                    : Danish
Language                                 : Danish
Default                                  : No
Forced                                   : No

Text #3
ID                                       : 5
Format                                   : PGS
Muxing mode                              : zlib
Codec ID                                 : S_HDMV/PGS
Codec ID/Info                            : Picture based subtitle format used on BDs/HD-DVDs
Duration                                 : 1 h 24 min
Bit rate                                 : 13.9 kb/s
Count of elements                        : 1428
Stream size                              : 8.38 MiB (0%)
Title                                    : Finnish
Language                                 : Finnish
Default                                  : No
Forced                                   : No

Text #4
ID                                       : 6
Format                                   : PGS
Muxing mode                              : zlib
Codec ID                                 : S_HDMV/PGS
Codec ID/Info                            : Picture based subtitle format used on BDs/HD-DVDs
Duration                                 : 1 h 21 min
Bit rate                                 : 14.4 kb/s
Count of elements                        : 1420
Stream size                              : 8.40 MiB (0%)
Title                                    : Norwegian
Language                                 : Norwegian
Default                                  : No
Forced                                   : No

Text #5
ID                                       : 7
Format                                   : PGS
Muxing mode                              : zlib
Codec ID                                 : S_HDMV/PGS
Codec ID/Info                            : Picture based subtitle format used on BDs/HD-DVDs
Duration                                 : 1 h 21 min
Bit rate                                 : 14.7 kb/s
Count of elements                        : 1414
Stream size                              : 8.55 MiB (0%)
Title                                    : Swedish
Language                                 : Swedish
Default                                  : No
Forced                                   : No

Menu
00:00:00.000                             : en:00:00:00.000
00:09:25.760                             : en:00:09:25.760
00:20:58.200                             : en:00:20:58.200
00:30:23.000                             : en:00:30:23.000
00:41:02.640                             : en:00:41:02.640
00:50:36.880                             : en:00:50:36.880
01:01:02.840                             : en:01:01:02.840
01:11:24.400                             : en:01:11:24.400

b0543b38d4a11258c410087b2bb761fb.jpg





                                                                                                                                                                                                        
                                                                                                                                                                                                                                                                                                                                                                                                                                                                                                                                                                                                                                                                                                                                                                                                                                                        
4cfd8ea4b8932cb0d411de3c960e7951.torrent (16.65 KB, 下载次数: 0)

回复

使用道具 举报

小黑屋|西西论坛

本网站所有资源来自网络,如无意中侵犯了您的权益,请发邮件至 [email protected],立即清除相关链接

GMT+8, 2021-9-19 10:58 , Processed in 0.116145 second(s), 17 queries .

Powered by Discuz! X3.2

© 2001-2013 Comsenz Inc.

快速回复 返回顶部 返回列表