西西论坛

 找回密码
 立即注册
搜索

[游戏男孩&电影版][有水印][网盘下载][WEB-MKV/1.41GB][他加禄语中字][1440X900][Vamp ...

[复制链接]
admin 发表于 2021-9-4 12:51:21 | 显示全部楼层 |阅读模式
-->b35b438feddf923a3ceb915060427674.jpg




◎译  名 游戏男孩 电影版 / 遊戲男孩 電影版
◎片  名 Gameboys The Movie
◎年  代 2021
◎产  地 菲律宾 Philippine
◎类  别 同性
◎语  言 他加禄语 Tagalog
◎上映日期 2021-07-30(菲律宾)
◎导  演 伊万·安德鲁 Ivan Andrew
◎主  演 科科伊·德·桑托斯 Kokoy de Santos
       伊利亚·坎拉斯 Elijah Canlas
       苏爱莲 Adrianna So
       凯尔·韦利诺 Kyle Velino
       米吉·希门尼斯 Miggy Jimenez
       基奇·米涅莫托 Kych Minemoto


◎标  签 同性 | 菲律宾 | 爱情 | 青春 | 2021 | 电影 | 耽美 | 教育


◎简  介


  Cairo和Gavreel歷經千辛萬苦在一起後,Gavreel的阿姨突然出現,並阻止兩人的交往;與此同時,Cairo也即將離開,前去跟家人同住,兩人的戀情面臨重重考驗,這次他們能否堅持下去?


7f69be79d67557ee354bb60d9b981810.jpg




General


Complete name               : 游戏男孩&电影版.Gameboys.The.Movie.2021.1440X900.60FPS.WEB-DL.X264.AAC-Vampire.mkv
Format                      : Matroska
Format version              : Version 4
File size                   : 1.41 GiB
Duration                    : 1 h 47 min
Overall bit rate            : 1 879 kb/s
Movie name                  : 游戏男孩&电影版.Gameboys.The.Movie.2021.1440X900.60FPS.WEB-DL.X264.AAC-Vampire / 游戏男孩&电影版/Gameboys.The.Movie
Encoded date                : UTC 2021-09-03 07:14:51
Writing application         : mkvmerge v55.0.0 ('Waiting For Space') 64-bit
Writing library             : libebml v1.4.2 + libmatroska v1.6.4
Cover                       : Yes
Comment                     : 警告:严禁将任何作品用于商业性质活动,所有制作作品仅限于测试宽带之用,请于下载后24小时内删除。本人不承担任何法律后果!喜欢本作品请购买正版!!!
Attachments                 : Cover.jpg
ARTIST                      : Vampire制作分享作品
DATE_RECORDED               : 2021
GENRE                       : 菲律宾


Video
ID                          : 1
Format                      : AVC
Format/Info                 : Advanced Video Codec
Format profile              :
Format settings             : CABAC / 4 Ref Frames
Format settings, CABAC      : Yes
Format settings, Reference  : 4 frames
Codec ID                    : V_MPEG4/ISO/AVC
Duration                    : 1 h 47 min
Bit rate                    : 1 800 kb/s
Width                       : 1 440 pixels
Height                      : 900 pixels
Display aspect ratio        : 16:10
Frame rate mode             : Constant
Frame rate                  : 60.000 FPS
Color space                 : YUV
Chroma subsampling          : 4:2:0
Bit depth                   : 8 bits
Scan type                   : Progressive
Bits/(Pixel*Frame)          : 0.023
Stream size                 : 1.34 GiB (95%)
Title                       : Vampire制作分享作品
Writing library             : x264 core 160 r3011M cde9a93
Encoding settings           : cabac=1 / ref=3 / deblock=1:0:0 / analyse=0x3:0x113 / me=hex / subme=7 / psy=1 / psy_rd=1.00:0.00 / mixed_ref=1 / me_range=16 / chroma_me=1 / trellis=1 / 8x8dct=1 / cqm=0 / deadzone=21,11 / fast_pskip=1 / chroma_qp_offset=-2 / threads=6 / lookahead_threads=1 / sliced_threads=0 / nr=0 / decimate=1 / interlaced=0 / bluray_compat=0 / constrained_intra=0 / bframes=3 / b_pyramid=2 / b_adapt=1 / b_bias=0 / direct=1 / weightb=1 / open_gop=0 / weightp=2 / keyint=250 / keyint_min=25 / scenecut=40 / intra_refresh=0 / rc_lookahead=40 / rc=abr / mbtree=1 / bitrate=1800 / ratetol=1.0 / qcomp=0.60 / qpmin=0 / qpmax=69 / qpstep=4 / ip_ratio=1.40 / aq=1:1.00
Language                    : Tagalog
Default                     : Yes
Forced                      : No


Audio
ID                          : 2
Format                      : AAC LC
Format/Info                 : Advanced Audio Codec Low Complexity
Codec ID                    : A_AAC-2
Duration                    : 1 h 47 min
Bit rate                    : 96.0 kb/s
Channel(s)                  : 2 channels
Channel layout              : L R
Sampling rate               : 48.0 kHz
Frame rate                  : 46.875 FPS (1024 SPF)
Compression mode            : Lossy
Stream size                 : 73.8 MiB (5%)
Title                       : 他加禄语(Tagalog)
Language                    : Tagalog
Default                     : Yes
Forced                      : No


本人发布的种子请使用专业BT下载工具:
UT,Bitcomet,qBittorrent,Xdown开启上传后再下载!!!
使用迅雷或度盘离线可能会没速度!!!


视频的网盘资源均在视频后缀(如mp4或mkv)后又跟随了.xy(mp4.xy或mkv.xy)用以混淆官方视听!
并且加密了文件名,设置了独有的解压密码,请使用WinRAR解压,使用好压或其他可能会出错!
已完结剧集不再分集打包上传,整体打包后分卷,无法单独下载某一集,需要全部下载后一起解压,敬请知晓!
请各位下载的坛友先保存至自己的网盘,然后再进行下载!

不要直接在线观看或者解压,否则会很快被网盘官方发觉并和谐!



阿里云盘后缀名凡是“PDF”的,请在下载完成后将后缀名“PDF”修改为“rar”,即可正常解压,观看!
目前阿里云盘上传和下载均不限速,趁着这段“免费VIP”的时间,就暂时放弃度盘吧!


请下载完成的朋友自觉做种一段时间,小水管出种不易,且下且珍惜,谢谢!!!


解压请使用官方原版WinRAR,使用破解版或者好压等软件可能会出错,感谢所有赞赏的朋友!!!
                                                                                                                                                                                                        
                                                                                                                                                                                                                                                                                                                                                                                                                                                                                                                                                                                                                                                                                       
0c788e42b94e755e9b7fcf404578f69b.rar (708.38 KB, 下载次数: 0)

回复

使用道具 举报

小黑屋|西西论坛

本网站所有资源来自网络,如无意中侵犯了您的权益,请发邮件至 [email protected],立即清除相关链接

GMT+8, 2021-9-18 02:41 , Processed in 0.120141 second(s), 17 queries .

Powered by Discuz! X3.2

© 2001-2013 Comsenz Inc.

快速回复 返回顶部 返回列表