西西论坛

 找回密码
 立即注册
搜索

在一起 Together.2000.720p.BluRay.x264-USURY 5.87GB

[复制链接]
admin 发表于 2021-9-2 14:23:16 | 显示全部楼层 |阅读模式
在一起 Together.2000.720p.BluRay.x264-USURY 5.87GB                                                                                                                                                                                                                                                                                                                                                                                                                                                                                                                                        -->
帖子完整标题:在一起 Together.2000.720p.BluRay.x264-USURY 5.87GB





◎译  名 在一起/Together/一个屋檐下
◎片  名 Tillsammans
◎年  代 2000
◎产  地 瑞典,丹麦,意大利
◎类  别 剧情 / 喜剧
◎语  言 瑞典语
◎上映日期 2001-03-03
◎豆瓣评分 7.6/10 from 320 users
◎豆瓣链接 
◎片  长 106 分钟
◎导  演 鲁卡斯·穆迪森 Lukas Moodysson
◎编  剧 鲁卡斯·穆迪森 Lukas Moodysson
◎主  演 Lisa Lindgren Lisa Lindgren
       迈克尔·恩奎斯特 Michael Nyqvist
       Emma Samuelsson Emma Samuelsson
       Sam Kessel Sam Kessel
       古斯塔夫·汉马斯顿 Gustaf Hammarsten
       安佳伦德克维斯特 Anja Lundkvist
       Jessica Liedberg Jessica Liedberg
       奥拉·拉佩斯 Ola Rapace
       Axel Zuber Axel Zuber
       沙汀·罗尼 Shanti Roney
       奥尔·萨里 Olle Sarri
       Cecilia Frode Cecilia Frode
       Lars Frode Lars Frode
       亨里克·伦德斯特伦 Henrik Lundstr?m
       马茨·布洛姆格伦 Mats Blomgren
       斯坦·伦格伦 Sten Ljunggren
       Thérèse Brunnander Thérèse Brunnander
       Claes Hartelius Claes Hartelius
       Jasmine Heikura Jasmine Heikura

◎标  签 瑞典 | LukasMoodysson | 瑞典电影 | 2000 | Lukas_Moodysson | 北欧 | 2000s | 瑞典電影

◎简  介

  故事发生在70年代的斯德哥尔摩。伊丽莎白的丈夫洛夫是个粗暴的酒鬼。在他第N次揍那可怜的妻子后,她终于无法忍受,带着两个孩子爱娃和斯蒂凡离家出走,投奔哥哥葛兰。
  
  葛兰和他的一群嬉皮士朋友组成了一个小小的团体名为“TOGETHER”,尽管风云变幻的60年代已经过去,曾经是嬉皮运动和学生运动中心的大城市早已平静下来,但在偏远的斯堪地那维亚,真正的“伍德斯托克(Woodstock)一代”才刚刚成长起来。葛兰和他的朋友就正在实践着建立原始的聚居公社的理想,他们像一个大家庭一般生活在一起。在这个“家”里,形形色色的人试图和睦相处。他们中间有愤世嫉俗的犬儒主义者,宣扬环保至上的素食主义者,激进的社会党人,女同性恋者,变性者,暴动分子等等。他们拒绝资本主义制度,排斥电视机和禽肉,宣扬社会主义和自由的爱,整天讨论他们内心中并不怎么相信的理论,沉迷于开放的性关系和改变世界的空想中。
Video
ID                                       : 1
Format                                   : AVC
Format/Info                              : Advanced Video Codec
Format profile                           :
Format settings                          : CABAC / 9 Ref Frames
Format settings, CABAC                   : Yes
Format settings, Reference frames        : 9 frames
Codec ID                                 : V_MPEG4/ISO/AVC
Duration                                 : 1 h 41 min
Bit rate                                 : 6 814 kb/s
Width                                    : 1 196 pixels
Height                                   : 720 pixels
Display aspect ratio                     : 5:3
Frame rate mode                          : Constant
Frame rate                               : 25.000 FPS
Color space                              : YUV
Chroma subsampling                       : 4:2:0
Bit depth                                : 8 bits
Scan type                                : Progressive
Bits/(Pixel*Frame)                       : 0.317
Stream size                              : 4.85 GiB (83%)
Writing library                          : x264 core 164 r3065 ae03d92
Encoding settings                        : cabac=1 / ref=9 / deblock=1:-3:-3 / analyse=0x3:0x133 / me=umh / subme=10 / psy=1 / psy_rd=1.00:0.15 / mixed_ref=1 / me_range=24 / chroma_me=1 / trellis=2 / 8x8dct=1 / cqm=0 / deadzone=21,11 / fast_pskip=1 / chroma_qp_offset=-3 / threads=18 / lookahead_threads=3 / sliced_threads=0 / nr=0 / decimate=1 / interlaced=0 / bluray_compat=0 / constrained_intra=0 / bframes=8 / b_pyramid=2 / b_adapt=2 / b_bias=0 / direct=3 / weightb=1 / open_gop=0 / weightp=2 / keyint=250 / keyint_min=25 / scenecut=40 / intra_refresh=0 / rc_lookahead=60 / rc=crf / mbtree=1 / crf=18.0 / qcomp=0.60 / qpmin=0 / qpmax=69 / qpstep=4 / ip_ratio=1.40 / aq=3:0.50
Language                                 : English
Default                                  : Yes
Forced                                   : No
Color range                              : Limited
Matrix coefficients                      : BT.709

Audio
ID                                       : 2
Format                                   : FLAC
Format/Info                              : Free Lossless Audio Codec
Codec ID                                 : A_FLAC
Duration                                 : 1 h 41 min
Bit rate mode                            : Variable
Bit rate                                 : 1 368 kb/s
Channel(s)                               : 2 channels
Channel layout                           : L R
Sampling rate                            : 48.0 kHz
Frame rate                               : 11.719 FPS (4096 SPF)
Bit depth                                : 24 bits
Compression mode                         : Lossless
Stream size                              : 996 MiB (17%)
Writing library                          : libFLAC 1.2.1 (UTC 2007-09-17)
Language                                 : Swedish
Default                                  : Yes
Forced                                   : No

Text #1
ID                                       : 3
Format                                   : UTF-8
Codec ID                                 : S_TEXT/UTF8
Codec ID/Info                            : UTF-8 Plain Text
Duration                                 : 1 h 38 min
Bit rate                                 : 51 b/s
Count of elements                        : 951
Stream size                              : 37.4 KiB (0%)
Title                                    : English
Language                                 : English
Default                                  : Yes
Forced                                   : Yes

Text #2
ID                                       : 4
Format                                   : PGS
Muxing mode                              : zlib
Codec ID                                 : S_HDMV/PGS
Codec ID/Info                            : Picture based subtitle format used on BDs/HD-DVDs
Duration                                 : 1 h 39 min
Bit rate                                 : 16.1 kb/s
Count of elements                        : 1844
Stream size                              : 11.4 MiB (0%)
Title                                    : Danish
Language                                 : Danish
Default                                  : No
Forced                                   : No

Text #3
ID                                       : 5
Format                                   : PGS
Muxing mode                              : zlib
Codec ID                                 : S_HDMV/PGS
Codec ID/Info                            : Picture based subtitle format used on BDs/HD-DVDs
Duration                                 : 1 h 39 min
Bit rate                                 : 14.3 kb/s
Count of elements                        : 1674
Stream size                              : 10.2 MiB (0%)
Title                                    : Finnish
Language                                 : Finnish
Default                                  : No
Forced                                   : No

Text #4
ID                                       : 6
Format                                   : PGS
Muxing mode                              : zlib
Codec ID                                 : S_HDMV/PGS
Codec ID/Info                            : Picture based subtitle format used on BDs/HD-DVDs
Duration                                 : 1 h 39 min
Bit rate                                 : 17.8 kb/s
Count of elements                        : 1934
Stream size                              : 12.6 MiB (0%)
Title                                    : Norwegian
Language                                 : Norwegian
Default                                  : No
Forced                                   : No

Text #5
ID                                       : 7
Format                                   : PGS
Muxing mode                              : zlib
Codec ID                                 : S_HDMV/PGS
Codec ID/Info                            : Picture based subtitle format used on BDs/HD-DVDs
Duration                                 : 1 h 39 min
Bit rate                                 : 18.9 kb/s
Count of elements                        : 2092
Stream size                              : 13.4 MiB (0%)
Title                                    : Swedish
Language                                 : Swedish
Default                                  : No
Forced                                   : No

Menu
00:00:00.000                             : en:00:00:00.000
00:12:04.120                             : en:00:12:04.120
00:26:40.440                             : en:00:26:40.440
00:39:30.920                             : en:00:39:30.920
00:52:24.400                             : en:00:52:24.400
01:05:51.160                             : en:01:05:51.160
01:18:50.960                             : en:01:18:50.960
01:31:01.840                             : en:01:31:01.840





                                                                                                                                                                                                        
                                                                                                                                                                                                                                                                                                                                                                                                                                                                                                                                                                                                                                                                                                                                                                                                                                                        
070dd9972b7d1da105a9e746eb0fec9a.torrent (15.39 KB, 下载次数: 0)

回复

使用道具 举报

小黑屋|西西论坛

本网站所有资源来自网络,如无意中侵犯了您的权益,请发邮件至 [email protected],立即清除相关链接

GMT+8, 2021-9-19 10:52 , Processed in 0.121913 second(s), 17 queries .

Powered by Discuz! X3.2

© 2001-2013 Comsenz Inc.

快速回复 返回顶部 返回列表