西西论坛

 找回密码
 立即注册
搜索

随机暴力行动 Random.Acts.of.Violence.2019.720p.BluRay.x264-JustWatch 2.01GB ... ...

[复制链接]
admin 发表于 2021-9-1 19:44:42 | 显示全部楼层 |阅读模式
随机暴力行动 Random.Acts.of.Violence.2019.720p.BluRay.x264-JustWatch 2.01GB                                                                                                                                                                                                                                                                                                                                                                                                                                                                                                                                        -->
帖子完整标题:随机暴力行动 Random.Acts.of.Violence.2019.720p.BluRay.x264-JustWatch 2.01GB



bca66450f7ede7d6a48e0e53863a7f4c.jpg



◎译  名 随机暴力行动
◎片  名 Random Acts of Violence
◎年  代 2019
◎产  地 美国
◎类  别 恐怖
◎语  言 英语
◎上映日期 2019-09-19(奥斯汀奇幻电影节) / 2020-07-31(加拿大网络) / 2020-08-20(美国网络)
◎豆瓣评分 4.7/10 from 368 users
◎豆瓣链接 
◎片  长 80分钟
◎导  演 杰伊·巴鲁切尔 Jay Baruchel
◎编  剧 杰伊·巴鲁切尔 Jay Baruchel / 吉米?帕尔默蒂 Jimmy Palmiotti
◎主  演 杰伊·巴鲁切尔 Jay Baruchel
       杰西·威廉姆斯 Jesse Williams
       乔丹娜·布鲁斯特 Jordana Brewster
       妮娅姆·威尔逊 Niamh Wilson

◎标  签 血腥 | 恐怖 | 美国 | 犯罪 | 2020 | 重口 | 犯罪惊悚 | 美国电影

◎简  介

  杰西·威廉姆斯、乔丹娜·布鲁斯特加盟,杰伊·巴鲁切尔自导自演新片[随机暴力行动](Random Acts Of Violence,暂译)。本片根据同名漫画小说改编,将围绕漫画作者托德(威廉姆饰)、他的女友(布鲁斯特饰)、他的助理(妮娅姆·威尔逊饰)、他的好朋友(巴鲁切尔饰)展开。在从多伦多到纽约参加动漫展的路上,人们开始像托德漫画中的方式被杀害。很明显,是有一个狂热粉丝在搞事......本片正在拍摄,将持续到9月。
Video
ID                                       : 1
Format                                   : AVC
Format/Info                              : Advanced Video Codec
Format profile                           :
Format settings                          : CABAC / 8 Ref Frames
Format settings, CABAC                   : Yes
Format settings, Reference frames        : 8 frames
Codec ID                                 : V_MPEG4/ISO/AVC
Duration                                 : 1 h 20 min
Bit rate                                 : 2 903 kb/s
Width                                    : 1 280 pixels
Height                                   : 536 pixels
Display aspect ratio                     : 2.40:1
Frame rate mode                          : Constant
Frame rate                               : 24.000 FPS
Color space                              : YUV
Chroma subsampling                       : 4:2:0
Bit depth                                : 8 bits
Scan type                                : Progressive
Bits/(Pixel*Frame)                       : 0.176
Stream size                              : 1.64 GiB (82%)
Writing library                          : x264 core 164 r3065 ae03d92
Encoding settings                        : cabac=1 / ref=8 / deblock=1:-3:-3 / analyse=0x3:0x133 / me=umh / subme=9 / psy=1 / psy_rd=1.00:0.00 / mixed_ref=1 / me_range=16 / chroma_me=1 / trellis=2 / 8x8dct=1 / cqm=0 / deadzone=21,11 / fast_pskip=0 / chroma_qp_offset=-2 / threads=17 / lookahead_threads=1 / sliced_threads=0 / nr=0 / decimate=1 / interlaced=0 / bluray_compat=0 / constrained_intra=0 / bframes=3 / b_pyramid=2 / b_adapt=2 / b_bias=0 / direct=3 / weightb=1 / open_gop=0 / weightp=2 / keyint=250 / keyint_min=24 / scenecut=40 / intra_refresh=0 / rc_lookahead=60 / rc=crf / mbtree=1 / crf=17.0 / qcomp=0.60 / qpmin=0 / qpmax=69 / qpstep=4 / ip_ratio=1.40 / aq=1:1.00
Language                                 : English
Default                                  : Yes
Forced                                   : No

Audio
ID                                       : 2
Format                                   : AC-3
Format/Info                              : Audio Coding 3
Commercial name                          : Dolby Digital
Codec ID                                 : A_AC3
Duration                                 : 1 h 20 min
Bit rate mode                            : Constant
Bit rate                                 : 640 kb/s
Channel(s)                               : 6 channels
Channel layout                           : L R C LFE Ls Rs
Sampling rate                            : 48.0 kHz
Frame rate                               : 31.250 FPS (1536 SPF)
Compression mode                         : Lossy
Stream size                              : 370 MiB (18%)
Language                                 : English
Service kind                             : Complete Main
Default                                  : Yes
Forced                                   : No

Text #1
ID                                       : 3
Format                                   : PGS
Muxing mode                              : zlib
Codec ID                                 : S_HDMV/PGS
Codec ID/Info                            : Picture based subtitle format used on BDs/HD-DVDs
Duration                                 : 1 h 15 min
Bit rate                                 : 26.1 kb/s
Count of elements                        : 1242
Stream size                              : 14.1 MiB (1%)
Language                                 : German
Default                                  : No
Forced                                   : No

Text #2
ID                                       : 4
Format                                   : PGS
Muxing mode                              : zlib
Codec ID                                 : S_HDMV/PGS
Codec ID/Info                            : Picture based subtitle format used on BDs/HD-DVDs
Duration                                 : 55 min 48 s
Bit rate                                 : 712 b/s
Count of elements                        : 45
Stream size                              : 291 KiB (0%)
Title                                    : forced
Language                                 : German
Default                                  : No
Forced                                   : No

Menu
00:00:00.000                             : en:Chapter 01
00:06:27.458                             : en:Chapter 02
00:12:37.542                             : en:Chapter 03
00:20:50.917                             : en:Chapter 04
00:27:06.667                             : en:Chapter 05
00:31:27.625                             : en:Chapter 06
00:40:28.042                             : en:Chapter 07
00:47:20.583                             : en:Chapter 08
00:54:33.958                             : en:Chapter 09
01:00:58.917                             : en:Chapter 10
01:06:46.042                             : en:Chapter 11
01:16:32.833                             : en:Chapter 12

61e06b811beba2334e22efaaede6e0db.jpg





                                                                                                                                                                                                        
                                                                                                                                                                                                                                                                                                                                                                                                                                                                                                                                                                                                                                                                                                                                                                                                                                                        
7559cde4be75310ccc06c1138475471d.torrent (20.85 KB, 下载次数: 0)

回复

使用道具 举报

小黑屋|西西论坛

本网站所有资源来自网络,如无意中侵犯了您的权益,请发邮件至 [email protected],立即清除相关链接

GMT+8, 2021-9-19 10:26 , Processed in 0.130134 second(s), 17 queries .

Powered by Discuz! X3.2

© 2001-2013 Comsenz Inc.

快速回复 返回顶部 返回列表