西西论坛

 找回密码
 立即注册
搜索

身在高地/活在上城 In.the.Heights.2021.720p.BluRay.x264-PiGNUS 6.19GB

[复制链接]
admin 发表于 2021-9-1 19:44:37 | 显示全部楼层 |阅读模式
身在高地/活在上城 In.the.Heights.2021.720p.BluRay.x264-PiGNUS 6.19GB                                                                                                                                                                                                                                                                                                                                                                                                                                                                                                                                        -->
帖子完整标题:身在高地/活在上城 In.the.Heights.2021.720p.BluRay.x264-PiGNUS 6.19GB



875852fc82a638d779deb7871a9851b0.jpg



◎译  名 身在高地/活在上城/狂舞纽约(港)/纽约高地(台)
◎片  名 In the Heights
◎年  代 2021
◎产  地 美国
◎类  别 音乐 / 歌舞
◎语  言 英语,西班牙语
◎上映日期 2021-06-11(美国)
◎豆瓣评分 7.2/10 from 2441 users
◎豆瓣链接 
◎片  长 143分钟
◎导  演 朱浩伟 Jon M. Chu
◎编  剧 琦亚拉·艾蕾葛莉亚·休德斯 Quiara Alegria Hudes / 林-曼努尔·米兰达 Lin-Manuel Miranda
◎主  演 安东尼·拉莫斯 Anthony Ramos
       梅丽莎·巴雷拉 Melissa Barrera
       斯蒂芬妮·比翠丝 Stephanie Beatriz
       阿丽亚娜·格林布拉特 Ariana Greenblatt
       林-曼努尔·米兰达 Lin-Manuel Miranda
       吉米·斯密茨 Jimmy Smits
       科里·霍金斯 Corey Hawkins
       达丝莎·坡兰科 Dascha Polanco
       克里斯·杰克逊 Chris Jackson
       达芬妮·鲁宾-维佳 Daphne Rubin-Vega
       马克·安东尼 Marc Anthony
       黄景伟 Alex Wong
       欧嘉·梅雷迪斯 Olga Merediz
       Valéry Lessard Valéry Lessard
       格里高利·迪亚兹四世 Gregory Diaz IV
       苏珊·波尔法 Susan Pourfar
       帕特里克·佩奇 Patrick Page
       玛莎·尼科尔斯 Martha Nichols
       阿列克莎·波勒 Alexa Poller
       詹姆斯·雷娃 James Leyva
       汤姆·伯克伦 Tom Berklund
       亚历克斯·佩雷斯 Alex Perez
       安妮·比萨比亚 Annie Pisapia
       阿尔贝托·巴斯克斯 Alberto Vazquez
       Henardo Rodriguez Henardo Rodriguez
       Keith Kuhl Keith Kuhl
       尼古拉斯·斯图尔特 Nicholas Stewart

◎标  签 音乐剧 | 美国 | 音乐 | 2021 | musical | LMM | 电影 | 歌舞

◎简  介

  讲述在纽约的华盛顿高地,杂货店老板Usnavi在继承了祖母的财产后,将要关掉店铺回到家乡多米尼加共和国过退休生活,对此他百感交集,而拉美裔社区和那里居民的吸引力让他停下来思考。影片围绕Usnavi、一名大学生、一名出租车司机、一位美容院员工和一个渴望更好生活的老妇人展开,随着中产阶级化开始扎根,闷热夏天中,一场停电让个人危机达到前所未有的高度。
Video
ID                                       : 1
Format                                   : AVC
Format/Info                              : Advanced Video Codec
Format profile                           :
Format settings                          : CABAC / 8 Ref Frames
Format settings, CABAC                   : Yes
Format settings, Reference frames        : 8 frames
Codec ID                                 : V_MPEG4/ISO/AVC
Duration                                 : 2 h 22 min
Bit rate                                 : 5 320 kb/s
Width                                    : 1 280 pixels
Height                                   : 534 pixels
Display aspect ratio                     : 2.40:1
Frame rate mode                          : Constant
Frame rate                               : 23.976 (24000/1001/189150) FPS
Color space                              : YUV
Chroma subsampling                       : 4:2:0
Bit depth                                : 8 bits
Scan type                                : Progressive
Bits/(Pixel*Frame)                       : 0.325
Stream size                              : 5.31 GiB (86%)
Writing library                          : x264 core 164 r3065 ae03d92
Encoding settings                        : cabac=1 / ref=8 / deblock=1:-3:-3 / analyse=0x3:0x133 / me=umh / subme=9 / psy=1 / psy_rd=1.00:0.00 / mixed_ref=1 / me_range=16 / chroma_me=1 / trellis=2 / 8x8dct=1 / cqm=0 / deadzone=21,11 / fast_pskip=1 / chroma_qp_offset=-2 / threads=17 / lookahead_threads=1 / sliced_threads=0 / nr=0 / decimate=1 / interlaced=0 / bluray_compat=0 / constrained_intra=0 / bframes=3 / b_pyramid=2 / b_adapt=2 / b_bias=0 / direct=3 / weightb=1 / open_gop=0 / weightp=2 / keyint=250 / keyint_min=23 / scenecut=40 / intra_refresh=0 / rc_lookahead=60 / rc=crf / mbtree=1 / crf=15.0 / qcomp=0.60 / qpmin=0 / qpmax=69 / qpstep=4 / ip_ratio=1.40 / aq=1:1.00
Default                                  : Yes
Forced                                   : No

Audio
ID                                       : 2
Format                                   : AC-3
Format/Info                              : Audio Coding 3
Commercial name                          : Dolby Digital
Codec ID                                 : A_AC3
Duration                                 : 2 h 22 min
Bit rate mode                            : Constant
Bit rate                                 : 640 kb/s
Channel(s)                               : 6 channels
Channel layout                           : L R C LFE Ls Rs
Sampling rate                            : 48.0 kHz
Frame rate                               : 31.250 FPS (1536 SPF)
Compression mode                         : Lossy
Stream size                              : 655 MiB (10%)
Language                                 : English
Service kind                             : Complete Main
Default                                  : Yes
Forced                                   : No

Text #1
ID                                       : 3
Format                                   : PGS
Muxing mode                              : zlib
Codec ID                                 : S_HDMV/PGS
Codec ID/Info                            : Picture based subtitle format used on BDs/HD-DVDs
Duration                                 : 2 h 22 min
Bit rate                                 : 44.9 kb/s
Count of elements                        : 4889
Stream size                              : 45.8 MiB (1%)
Title                                    : English SDH
Language                                 : English
Default                                  : No
Forced                                   : No

Text #2
ID                                       : 4
Format                                   : PGS
Muxing mode                              : zlib
Codec ID                                 : S_HDMV/PGS
Codec ID/Info                            : Picture based subtitle format used on BDs/HD-DVDs
Duration                                 : 2 h 22 min
Bit rate                                 : 31.4 kb/s
Count of elements                        : 4000
Stream size                              : 31.9 MiB (1%)
Title                                    : French
Language                                 : French
Default                                  : No
Forced                                   : No

Text #3
ID                                       : 5
Format                                   : PGS
Muxing mode                              : zlib
Codec ID                                 : S_HDMV/PGS
Codec ID/Info                            : Picture based subtitle format used on BDs/HD-DVDs
Duration                                 : 2 h 22 min
Bit rate                                 : 45.9 kb/s
Count of elements                        : 4075
Stream size                              : 46.8 MiB (1%)
Title                                    : German
Language                                 : German
Default                                  : No
Forced                                   : No

Text #4
ID                                       : 6
Format                                   : PGS
Muxing mode                              : zlib
Codec ID                                 : S_HDMV/PGS
Codec ID/Info                            : Picture based subtitle format used on BDs/HD-DVDs
Duration                                 : 2 h 22 min
Bit rate                                 : 41.0 kb/s
Count of elements                        : 4729
Stream size                              : 41.8 MiB (1%)
Title                                    : Italian
Language                                 : Italian
Default                                  : No
Forced                                   : No

Text #5
ID                                       : 7
Format                                   : PGS
Muxing mode                              : zlib
Codec ID                                 : S_HDMV/PGS
Codec ID/Info                            : Picture based subtitle format used on BDs/HD-DVDs
Duration                                 : 2 h 22 min
Bit rate                                 : 34.2 kb/s
Count of elements                        : 3883
Stream size                              : 34.8 MiB (1%)
Title                                    : Spanish
Language                                 : Spanish
Default                                  : No
Forced                                   : No

Text #6
ID                                       : 8
Format                                   : PGS
Muxing mode                              : zlib
Codec ID                                 : S_HDMV/PGS
Codec ID/Info                            : Picture based subtitle format used on BDs/HD-DVDs
Duration                                 : 2 h 22 min
Bit rate                                 : 31.7 kb/s
Count of elements                        : 3159
Stream size                              : 32.3 MiB (1%)
Title                                    : Dutch
Language                                 : Dutch
Default                                  : No
Forced                                   : No

Text #7
ID                                       : 9
Format                                   : PGS
Muxing mode                              : zlib
Codec ID                                 : S_HDMV/PGS
Codec ID/Info                            : Picture based subtitle format used on BDs/HD-DVDs
Duration                                 : 2 h 22 min
Bit rate                                 : 35.5 kb/s
Count of elements                        : 3984
Stream size                              : 36.2 MiB (1%)
Title                                    : Spanish
Language                                 : Spanish
Default                                  : No
Forced                                   : No

Text #8
ID                                       : 10
Format                                   : PGS
Muxing mode                              : zlib
Codec ID                                 : S_HDMV/PGS
Codec ID/Info                            : Picture based subtitle format used on BDs/HD-DVDs
Duration                                 : 2 h 22 min
Bit rate                                 : 41.2 kb/s
Count of elements                        : 4450
Stream size                              : 41.9 MiB (1%)
Title                                    : Portuguese
Language                                 : Portuguese
Default                                  : No
Forced                                   : No

Text #9
ID                                       : 11
Format                                   : PGS
Muxing mode                              : zlib
Codec ID                                 : S_HDMV/PGS
Codec ID/Info                            : Picture based subtitle format used on BDs/HD-DVDs
Duration                                 : 2 h 22 min
Bit rate                                 : 31.1 kb/s
Count of elements                        : 2983
Stream size                              : 31.7 MiB (0%)
Title                                    : Danish
Language                                 : Danish
Default                                  : No
Forced                                   : No

Text #10
ID                                       : 12
Format                                   : PGS
Muxing mode                              : zlib
Codec ID                                 : S_HDMV/PGS
Codec ID/Info                            : Picture based subtitle format used on BDs/HD-DVDs
Duration                                 : 2 h 22 min
Bit rate                                 : 36.2 kb/s
Count of elements                        : 4256
Stream size                              : 36.8 MiB (1%)
Title                                    : Finnish
Language                                 : Finnish
Default                                  : No
Forced                                   : No

Text #11
ID                                       : 13
Format                                   : PGS
Muxing mode                              : zlib
Codec ID                                 : S_HDMV/PGS
Codec ID/Info                            : Picture based subtitle format used on BDs/HD-DVDs
Duration                                 : 2 h 22 min
Bit rate                                 : 33.8 kb/s
Count of elements                        : 3644
Stream size                              : 34.5 MiB (1%)
Title                                    : Norwegian
Language                                 : Norwegian
Default                                  : No
Forced                                   : No

Text #12
ID                                       : 14
Format                                   : PGS
Muxing mode                              : zlib
Codec ID                                 : S_HDMV/PGS
Codec ID/Info                            : Picture based subtitle format used on BDs/HD-DVDs
Duration                                 : 2 h 22 min
Bit rate                                 : 34.9 kb/s
Count of elements                        : 3571
Stream size                              : 35.6 MiB (1%)
Title                                    : Swedish
Language                                 : Swedish
Default                                  : No
Forced                                   : No

Text #13
ID                                       : 15
Format                                   : PGS
Muxing mode                              : zlib
Codec ID                                 : S_HDMV/PGS
Codec ID/Info                            : Picture based subtitle format used on BDs/HD-DVDs
Duration                                 : 2 h 19 min
Bit rate                                 : 16.8 kb/s
Count of elements                        : 1914
Stream size                              : 16.8 MiB (0%)
Title                                    : French
Language                                 : French
Default                                  : No
Forced                                   : No

Text #14
ID                                       : 16
Format                                   : PGS
Muxing mode                              : zlib
Codec ID                                 : S_HDMV/PGS
Codec ID/Info                            : Picture based subtitle format used on BDs/HD-DVDs
Duration                                 : 2 h 22 min
Bit rate                                 : 22.9 kb/s
Count of elements                        : 2166
Stream size                              : 23.3 MiB (0%)
Title                                    : German
Language                                 : German
Default                                  : No
Forced                                   : No

Text #15
ID                                       : 17
Format                                   : PGS
Muxing mode                              : zlib
Codec ID                                 : S_HDMV/PGS
Codec ID/Info                            : Picture based subtitle format used on BDs/HD-DVDs
Duration                                 : 2 h 22 min
Bit rate                                 : 17.5 kb/s
Count of elements                        : 1934
Stream size                              : 17.9 MiB (0%)
Title                                    : Italian
Language                                 : Italian
Default                                  : No
Forced                                   : No

Text #16
ID                                       : 18
Format                                   : PGS
Muxing mode                              : zlib
Codec ID                                 : S_HDMV/PGS
Codec ID/Info                            : Picture based subtitle format used on BDs/HD-DVDs
Duration                                 : 2 h 19 min
Bit rate                                 : 19.4 kb/s
Count of elements                        : 1994
Stream size                              : 19.3 MiB (0%)
Title                                    : Spanish
Language                                 : Spanish
Default                                  : No
Forced                                   : No

Text #17
ID                                       : 19
Format                                   : PGS
Muxing mode                              : zlib
Codec ID                                 : S_HDMV/PGS
Codec ID/Info                            : Picture based subtitle format used on BDs/HD-DVDs
Duration                                 : 2 h 11 min
Bit rate                                 : 281 b/s
Count of elements                        : 24
Stream size                              : 271 KiB (0%)
Title                                    : Spanish
Language                                 : Spanish
Default                                  : No
Forced                                   : No

Text #18
ID                                       : 20
Format                                   : PGS
Muxing mode                              : zlib
Codec ID                                 : S_HDMV/PGS
Codec ID/Info                            : Picture based subtitle format used on BDs/HD-DVDs
Duration                                 : 2 h 22 min
Bit rate                                 : 22.7 kb/s
Count of elements                        : 2360
Stream size                              : 23.1 MiB (0%)
Title                                    : Portuguese
Language                                 : Portuguese
Default                                  : No
Forced                                   : No

Menu
00:00:00.000                             : Chapter 01
00:11:08.459                             : Chapter 02
00:18:18.180                             : Chapter 03
00:26:28.253                             : Chapter 04
00:30:08.140                             : Chapter 05
00:37:37.714                             : Chapter 06
00:43:58.594                             : Chapter 07
00:50:53.676                             : Chapter 08
00:59:38.825                             : Chapter 09
01:03:36.563                             : Chapter 10
01:12:32.265                             : Chapter 11
01:23:02.269                             : Chapter 12
01:32:45.477                             : Chapter 13
01:40:51.712                             : Chapter 14
01:51:08.370                             : Chapter 15
01:55:44.604                             : Chapter 16
02:04:37.595                             : Chapter 17
02:14:58.507                             : Chapter 18
02:21:45.831                             : Chapter 19
02:22:58.862                             : Chapter 20

df3cf421fc92b3355cafe40038bedbac.jpg





                                                                                                                                                                                                        
                                                                                                                                                                                                                                                                                                                                                                                                                                                                                                                                                                                                                                                                                                                                                                                                                                                        
326c623f9b1ca1be7621ad59deeb2e24.torrent (16.19 KB, 下载次数: 0)

回复

使用道具 举报

小黑屋|西西论坛

本网站所有资源来自网络,如无意中侵犯了您的权益,请发邮件至 [email protected],立即清除相关链接

GMT+8, 2021-9-19 09:48 , Processed in 0.141535 second(s), 17 queries .

Powered by Discuz! X3.2

© 2001-2013 Comsenz Inc.

快速回复 返回顶部 返回列表