西西论坛

 找回密码
 立即注册
搜索

真人快打传奇:王国之战 Mortal.Kombat.Legends.Battle.of.the.Realms.2021.720p.BluRa ...

[复制链接]
admin 发表于 2021-9-1 19:44:32 | 显示全部楼层 |阅读模式
真人快打传奇:王国之战 Mortal.Kombat.Legends.Battle.of.the.Realms.2021.720p.BluRay.x264-PiG                                                                                                                                                                                                                                                                                                                                                                                                                                                                                                                                        -->
帖子完整标题:真人快打传奇:王国之战 Mortal.Kombat.Legends.Battle.of.the.Realms.2021.720p.BluRay.x264-PiGNUS 2.67GB



9827db3d80e3f9c9d091329f1bc72743.jpg



◎译  名 真人快打传奇:王国之战
◎片  名 Mortal Kombat Legends: Battle of the Realms
◎年  代 2021
◎产  地 美国
◎类  别 动作 / 动画 / 冒险
◎语  言 英语
◎上映日期 2021-08-31(美国)
◎豆瓣评分 /10 from 0 users
◎豆瓣链接 
◎片  长 80分钟
◎导  演 伊桑·斯波尔丁 Ethan Spaulding
◎编  剧 杰瑞米·亚当斯 Jeremy Adams / 埃德·布恩 Ed Boon / 约翰·托拜亚斯 John Tobias
◎主  演 乔丹·罗德里格斯 Jordan Rodrigues
       帕特里克·赛兹 Patrick Seitz
       巴亚尔多·德·穆古拉 Bayardo De Murguia
        Dave B. Mitchell
       詹妮弗·卡朋特 Jennifer Carpenter
       乔尔·麦克哈尔 Joel McHale

◎标  签 动画 | 动作 | 美国 | 真人快打 | 冒险 | 2021 | 美国动画 | 奇幻

◎简  介

  The movie picks up right after Scorpion's Revenge where the heroes are attacked by Shao Kahn, which will force "Raiden and his group of warriors into a deal to compete in a final Mortal Kombat that will determine the fate of the realms." This forces the good guys to travel to Outworld defend Earthrealm while Scorpion journeys to find the Kamidogu (a mystic relic made by the almighty Elder Gods) before it is used to bring back the mysterious One Being, who would destroy the universe.
Video
ID                                       : 1
Format                                   : AVC
Format/Info                              : Advanced Video Codec
Format profile                           :
Format settings                          : CABAC / 9 Ref Frames
Format settings, CABAC                   : Yes
Format settings, Reference frames        : 9 frames
Codec ID                                 : V_MPEG4/ISO/AVC
Duration                                 : 1 h 19 min
Bit rate                                 : 4 109 kb/s
Width                                    : 1 280 pixels
Height                                   : 720 pixels
Display aspect ratio                     : 16:9
Frame rate mode                          : Constant
Frame rate                               : 23.976 (24000/1001/189150) FPS
Color space                              : YUV
Chroma subsampling                       : 4:2:0
Bit depth                                : 8 bits
Scan type                                : Progressive
Bits/(Pixel*Frame)                       : 0.186
Stream size                              : 2.29 GiB (86%)
Writing library                          : x264 core 164 r3065 ae03d92
Encoding settings                        : cabac=1 / ref=9 / deblock=1:1:1 / analyse=0x3:0x133 / me=umh / subme=9 / psy=1 / psy_rd=0.40:0.00 / mixed_ref=1 / me_range=16 / chroma_me=1 / trellis=2 / 8x8dct=1 / cqm=0 / deadzone=21,11 / fast_pskip=1 / chroma_qp_offset=-2 / threads=22 / lookahead_threads=2 / sliced_threads=0 / nr=0 / decimate=1 / interlaced=0 / bluray_compat=0 / constrained_intra=0 / bframes=5 / b_pyramid=2 / b_adapt=2 / b_bias=0 / direct=3 / weightb=1 / open_gop=0 / weightp=2 / keyint=250 / keyint_min=23 / scenecut=40 / intra_refresh=0 / rc_lookahead=60 / rc=crf / mbtree=1 / crf=15.0 / qcomp=0.60 / qpmin=0 / qpmax=69 / qpstep=4 / ip_ratio=1.40 / aq=1:0.60
Default                                  : Yes
Forced                                   : No

Audio
ID                                       : 2
Format                                   : AC-3
Format/Info                              : Audio Coding 3
Commercial name                          : Dolby Digital
Codec ID                                 : A_AC3
Duration                                 : 1 h 19 min
Bit rate mode                            : Constant
Bit rate                                 : 640 kb/s
Channel(s)                               : 6 channels
Channel layout                           : L R C LFE Ls Rs
Sampling rate                            : 48.0 kHz
Frame rate                               : 31.250 FPS (1536 SPF)
Compression mode                         : Lossy
Stream size                              : 365 MiB (13%)
Language                                 : English
Service kind                             : Complete Main
Default                                  : Yes
Forced                                   : No

Text #1
ID                                       : 3
Format                                   : PGS
Muxing mode                              : zlib
Codec ID                                 : S_HDMV/PGS
Codec ID/Info                            : Picture based subtitle format used on BDs/HD-DVDs
Duration                                 : 1 h 16 min
Bit rate                                 : 26.1 kb/s
Count of elements                        : 1884
Stream size                              : 14.3 MiB (1%)
Title                                    : English SDH
Language                                 : English
Default                                  : No
Forced                                   : No

Text #2
ID                                       : 4
Format                                   : PGS
Muxing mode                              : zlib
Codec ID                                 : S_HDMV/PGS
Codec ID/Info                            : Picture based subtitle format used on BDs/HD-DVDs
Duration                                 : 1 h 18 min
Bit rate                                 : 22.2 kb/s
Count of elements                        : 1288
Stream size                              : 12.5 MiB (0%)
Title                                    : French
Language                                 : French
Default                                  : No
Forced                                   : No

Text #3
ID                                       : 5
Format                                   : PGS
Muxing mode                              : zlib
Codec ID                                 : S_HDMV/PGS
Codec ID/Info                            : Picture based subtitle format used on BDs/HD-DVDs
Duration                                 : 1 h 18 min
Bit rate                                 : 20.5 kb/s
Count of elements                        : 1290
Stream size                              : 11.5 MiB (0%)
Title                                    : Spanish
Language                                 : Spanish
Default                                  : No
Forced                                   : No

Text #4
ID                                       : 6
Format                                   : PGS
Muxing mode                              : zlib
Codec ID                                 : S_HDMV/PGS
Codec ID/Info                            : Picture based subtitle format used on BDs/HD-DVDs
Duration                                 : 1 h 17 min
Bit rate                                 : 30.9 kb/s
Count of elements                        : 1972
Stream size                              : 17.0 MiB (1%)
Title                                    : German
Language                                 : German
Default                                  : No
Forced                                   : No

Text #5
ID                                       : 7
Format                                   : PGS
Muxing mode                              : zlib
Codec ID                                 : S_HDMV/PGS
Codec ID/Info                            : Picture based subtitle format used on BDs/HD-DVDs
Duration                                 : 1 h 18 min
Bit rate                                 : 20.4 kb/s
Count of elements                        : 1286
Stream size                              : 11.5 MiB (0%)
Title                                    : Dutch
Language                                 : Dutch
Default                                  : No
Forced                                   : No

Menu
00:00:00.000                             : Chapter 01
00:06:47.657                             : Chapter 02
00:16:36.162                             : Chapter 03
00:26:02.478                             : Chapter 04
00:35:15.196                             : Chapter 05
00:42:37.805                             : Chapter 06
00:50:00.915                             : Chapter 07
00:59:14.384                             : Chapter 08
01:08:39.532                             : Chapter 09
01:17:13.671                             : Chapter 10
01:19:49.451                             : Chapter 11





                                                                                                                                                                                                        
                                                                                                                                                                                                                                                                                                                                                                                                                                                                                                                                                                                                                                                                                                                                                                                                                                                        
58ecdfe056a0be0a4a33a779cbcbc803.torrent (27.5 KB, 下载次数: 0)

回复

使用道具 举报

小黑屋|西西论坛

本网站所有资源来自网络,如无意中侵犯了您的权益,请发邮件至 [email protected],立即清除相关链接

GMT+8, 2021-9-19 09:51 , Processed in 0.109885 second(s), 17 queries .

Powered by Discuz! X3.2

© 2001-2013 Comsenz Inc.

快速回复 返回顶部 返回列表