西西论坛

 找回密码
 立即注册
搜索

通道 The.Gateway.2021.720p.BluRay.x264.DTS-MT 4.41GB

[复制链接]
admin 发表于 2021-9-1 19:44:20 | 显示全部楼层 |阅读模式
通道 The.Gateway.2021.720p.BluRay.x264.DTS-MT 4.41GB                                                                                                                                                                                                                                                                                                                                                                                                                                                                                                                                        -->
帖子完整标题:通道 The.Gateway.2021.720p.BluRay.x264.DTS-MT 4.41GB



72f68fe27c4569c106c1e456268878d9.jpg



◎译  名 通道
◎片  名 The Gateway
◎年  代 2021
◎产  地 美国
◎类  别 剧情
◎语  言 英语
◎上映日期 
◎豆瓣评分 /10 from 0 users
◎豆瓣链接 
◎导  演 Michele Civetta Michele Civetta
◎编  剧 安德鲁·莱维塔斯 Andrew Levitas / Michele Civetta Michele Civetta
◎主  演 奥立薇娅·玛恩 Olivia Munn
       弗兰克·格里罗 Frank Grillo
       凯斯·大卫 Keith David
       塔恩·曼宁 Taryn Manning
       谢伊·惠格姆 Shea Whigham
       小马克·布恩 Mark Boone Junior
       布鲁斯·邓恩 Bruce Dern
       塔根·伯恩斯 Taegen Burns
       亚历山大·瑞斯 Alexander Wraith
       扎克·艾弗里 Zach Avery
       杰伊·赫农 Jay Hieron

◎标  签 SheaWhigham

◎简  介

  弗兰克·格里罗、凯斯·大卫([耐撕侦探])、塔恩·曼宁([女子监狱])、小马克·布恩([混乱之子])加盟谢伊·惠格姆、奥立薇娅·玛恩、布鲁斯·邓恩主演新片[通道](The Gateway,暂译)。米歇尔·西梅塔执导。影片围绕一名热情、严肃的社会工作者展开,他负责照顾一名单身母亲的女儿。
Video
ID                                       : 1
Format                                   : AVC
Format/Info                              : Advanced Video Codec
Format profile                           :
Format settings                          : CABAC / 9 Ref Frames
Format settings, CABAC                   : Yes
Format settings, Reference frames        : 9 frames
Codec ID                                 : V_MPEG4/ISO/AVC
Duration                                 : 1 h 31 min
Bit rate                                 : 5 403 kb/s
Width                                    : 1 280 pixels
Height                                   : 642 pixels
Display aspect ratio                     : 1.994
Frame rate mode                          : Constant
Frame rate                               : 23.976 (24000/1001/189150) FPS
Color space                              : YUV
Chroma subsampling                       : 4:2:0
Bit depth                                : 8 bits
Scan type                                : Progressive
Bits/(Pixel*Frame)                       : 0.274
Stream size                              : 3.44 GiB (78%)
Writing library                          : x264 core 157 r2938 2b00a84  Mod
Encoding settings                        : cabac=1 / ref=9 / deblock=1:-3:-3 / analyse=0x3:0x133 / me=umh / subme=10 / psy=1 / psy_rd=1.05:0.00 / mixed_ref=1 / me_range=32 / chroma_me=1 / trellis=2 / 8x8dct=1 / cqm=0 / deadzone=21,11 / fast_pskip=0 / chroma_qp_offset=-2 / threads=12 / lookahead_threads=2 / sliced_threads=0 / nr=0 / decimate=0 / interlaced=0 / bluray_compat=0 / constrained_intra=0 / bframes=8 / b_pyramid=2 / b_adapt=2 / b_bias=0 / direct=3 / weightb=1 / open_gop=0 / weightp=2 / keyint=250 / keyint_min=24 / scenecut=40 / intra_refresh=0 / rc_lookahead=250 / rc=crf / mbtree=0 / crf=16.8 / qcomp=0.60 / qpmin=0 / qpmax=69 / qpstep=4 / vbv_maxrate=62500 / vbv_bufsize=78125 / crf_max=0.0 / nal_hrd=none / filler=0 / ip_ratio=1.30 / pb_ratio=1.20 / aq=3:0.80
Language                                 : English
Default                                  : Yes
Forced                                   : No
Color range                              : Limited
Color primaries                          : BT.709
Matrix coefficients                      : BT.709

Audio
ID                                       : 2
Format                                   : DTS
Format/Info                              : Digital Theater Systems
Codec ID                                 : A_DTS
Duration                                 : 1 h 31 min
Bit rate mode                            : Constant
Bit rate                                 : 1 509 kb/s
Channel(s)                               : 6 channels
Channel layout                           : C L R Ls Rs LFE
Sampling rate                            : 48.0 kHz
Frame rate                               : 93.750 FPS (512 SPF)
Bit depth                                : 24 bits
Compression mode                         : Lossy
Stream size                              : 985 MiB (22%)
Language                                 : English
Default                                  : Yes
Forced                                   : No

Text
ID                                       : 3
Format                                   : UTF-8
Codec ID                                 : S_TEXT/UTF8
Codec ID/Info                            : UTF-8 Plain Text
Duration                                 : 1 h 26 min
Bit rate                                 : 60 b/s
Count of elements                        : 1129
Stream size                              : 38.4 KiB (0%)
Title                                    : SRT
Language                                 : English
Default                                  : Yes
Forced                                   : No

Menu
00:00:00.000                             : Chapter 01
00:05:06.806                             : Chapter 02
00:10:32.549                             : Chapter 03
00:15:58.291                             : Chapter 04
00:21:08.350                             : Chapter 05
00:26:30.672                             : Chapter 06
00:32:06.716                             : Chapter 07
00:38:28.848                             : Chapter 08
00:44:24.203                             : Chapter 09
00:49:47.860                             : Chapter 10
00:55:15.646                             : Chapter 11
01:01:26.141                             : Chapter 12
01:06:26.608                             : Chapter 13
01:12:10.910                             : Chapter 14
01:20:53.932                             : Chapter 15
01:24:00.327                             : Chapter 16

eab9bece99b4fa183fc5f0d938ebc06c.png

[/url]adbb159962f85e676615ddbac6f319d4.png

[/url]de0ab6c645c669aa3782e92ae64314e6.png

[/url]



                                                                                                                                                                                                        
                                                                                                                                                                                                                                                                                                                                                                                                                                                                                                                                                                                                                                                                                                                                                                                                                                                        
fdcf764e076405c8c5e45a969b3f03f4.torrent (22.65 KB, 下载次数: 0)

回复

使用道具 举报

小黑屋|西西论坛

本网站所有资源来自网络,如无意中侵犯了您的权益,请发邮件至 [email protected],立即清除相关链接

GMT+8, 2021-9-19 10:36 , Processed in 0.108685 second(s), 17 queries .

Powered by Discuz! X3.2

© 2001-2013 Comsenz Inc.

快速回复 返回顶部 返回列表