西西论坛

 找回密码
 立即注册
搜索

真是精彩的一生:霍华德·霍克斯传 Howard.Hawks.A.Hell.of.a.Good.Life.1978.720p.Blu ...

[复制链接]
admin 发表于 2021-9-1 19:44:17 | 显示全部楼层 |阅读模式
真是精彩的一生:霍华德·霍克斯传 Howard.Hawks.A.Hell.of.a.Good.Life.1978.720p.BluRay.x264-BiPOLA                                                                                                                                                                                                                                                                                                                                                                                                                                                                                                                                        -->
帖子完整标题:真是精彩的一生:霍华德·霍克斯传 Howard.Hawks.A.Hell.of.a.Good.Life.1978.720p.BluRay.x264-BiPOLAR 1.64GB



e39d05ae222ad57d056a4c011d502c44.jpg



◎译  名 真是精彩的一生:霍华德·霍克斯传/A Hell of a Good Life: Howard Hawks
◎片  名 Ein verdammt gutes Leben - Howard Hawks
◎年  代 1977
◎产  地 德国
◎类  别 纪录片
◎语  言 英语
◎上映日期 
◎豆瓣评分 /10 from 0 users
◎豆瓣链接 
◎片  长 58分钟
◎导  演 汉斯-克里斯托夫·布卢门贝格 Hans-Christoph Blumenberg
◎编  剧 汉斯-克里斯托夫·布卢门贝格 Hans-Christoph Blumenberg
◎主  演 霍华德·霍克斯 Howard Hawks

◎标  签 纪录片 | 德国 | 传记 | M美国 | Howard_Hawks | D霍华德·霍克斯

◎简  介

  暂无相关剧情介绍
Video
ID                                       : 1
Format                                   : AVC
Format/Info                              : Advanced Video Codec
Format profile                           :
Format settings                          : CABAC / 12 Ref Frames
Format settings, CABAC                   : Yes
Format settings, Reference frames        : 12 frames
Codec ID                                 : V_MPEG4/ISO/AVC
Duration                                 : 56 min 37 s
Bit rate                                 : 3 951 kb/s
Width                                    : 954 pixels
Height                                   : 720 pixels
Display aspect ratio                     : 4:3
Frame rate mode                          : Constant
Frame rate                               : 25.000 FPS
Color space                              : YUV
Chroma subsampling                       : 4:2:0
Bit depth                                : 8 bits
Scan type                                : Progressive
Bits/(Pixel*Frame)                       : 0.230
Stream size                              : 1.56 GiB (95%)
Writing library                          : x264 core 164 r3065 ae03d92
Encoding settings                        : cabac=1 / ref=12 / deblock=1:-3:-3 / analyse=0x3:0x133 / me=umh / subme=10 / psy=1 / psy_rd=1.00:0.15 / mixed_ref=1 / me_range=24 / chroma_me=1 / trellis=2 / 8x8dct=1 / cqm=0 / deadzone=21,11 / fast_pskip=1 / chroma_qp_offset=-3 / threads=18 / lookahead_threads=3 / sliced_threads=0 / nr=0 / decimate=1 / interlaced=0 / bluray_compat=0 / constrained_intra=0 / bframes=8 / b_pyramid=2 / b_adapt=2 / b_bias=0 / direct=3 / weightb=1 / open_gop=0 / weightp=2 / keyint=250 / keyint_min=25 / scenecut=40 / intra_refresh=0 / rc_lookahead=60 / rc=crf / mbtree=1 / crf=19.0 / qcomp=0.60 / qpmin=0 / qpmax=69 / qpstep=4 / ip_ratio=1.40 / aq=3:0.50
Language                                 : English
Default                                  : Yes
Forced                                   : No

Audio
ID                                       : 2
Format                                   : AC-3
Format/Info                              : Audio Coding 3
Commercial name                          : Dolby Digital
Codec ID                                 : A_AC3
Duration                                 : 56 min 37 s
Bit rate mode                            : Constant
Bit rate                                 : 192 kb/s
Channel(s)                               : 1 channel
Channel layout                           : C
Sampling rate                            : 48.0 kHz
Frame rate                               : 31.250 FPS (1536 SPF)
Compression mode                         : Lossy
Stream size                              : 77.8 MiB (5%)
Language                                 : English
Service kind                             : Complete Main
Default                                  : Yes
Forced                                   : No

Text #1
ID                                       : 3
Format                                   : UTF-8
Codec ID                                 : S_TEXT/UTF8
Codec ID/Info                            : UTF-8 Plain Text
Duration                                 : 54 min 8 s
Bit rate                                 : 7 b/s
Count of elements                        : 76
Stream size                              : 3.11 KiB (0%)
Title                                    : English forced
Language                                 : English
Default                                  : Yes
Forced                                   : Yes

Text #2
ID                                       : 4
Format                                   : PGS
Muxing mode                              : zlib
Codec ID                                 : S_HDMV/PGS
Codec ID/Info                            : Picture based subtitle format used on BDs/HD-DVDs
Duration                                 : 54 min 8 s
Bit rate                                 : 1 176 b/s
Count of elements                        : 152
Stream size                              : 467 KiB (0%)
Title                                    : English forced
Language                                 : English
Default                                  : No
Forced                                   : No





                                                                                                                                                                                                        
                                                                                                                                                                                                                                                                                                                                                                                                                                                                                                                                                                                                                                                                                                                                                                                                                                                        
5bc9686df28af582cafc91ed97b4b2f0.torrent (17.19 KB, 下载次数: 0)

回复

使用道具 举报

小黑屋|西西论坛

本网站所有资源来自网络,如无意中侵犯了您的权益,请发邮件至 [email protected],立即清除相关链接

GMT+8, 2021-9-19 10:27 , Processed in 0.123694 second(s), 17 queries .

Powered by Discuz! X3.2

© 2001-2013 Comsenz Inc.

快速回复 返回顶部 返回列表