西西论坛

 找回密码
 立即注册
搜索

孤儿橄榄球队 12.Mighty.Orphans.2021.720p.BluRay.x264.DTS-MT 10.44GB

[复制链接]
admin 发表于 2021-9-1 19:44:13 | 显示全部楼层 |阅读模式
孤儿橄榄球队 12.Mighty.Orphans.2021.720p.BluRay.x264.DTS-MT 10.44GB                                                                                                                                                                                                                                                                                                                                                                                                                                                                                                                                        -->
帖子完整标题:孤儿橄榄球队 12.Mighty.Orphans.2021.720p.BluRay.x264.DTS-MT 10.44GB



039b62694e14c07bb60192dd5326588a.jpg



◎译  名 孤儿橄榄球队
◎片  名 12 Mighty Orphans
◎年  代 2021
◎产  地 美国
◎类  别 剧情 / 传记 / 运动
◎语  言 英语
◎上映日期 2021-06-11(美国)
◎豆瓣评分 /10 from 0 users
◎豆瓣链接 
◎片  长 118分钟
◎导  演 泰·罗伯茨 Ty Roberts
◎编  剧 莱恩·加里逊 Lane Garrison / Kevin Meyer Kevin Meyer / 泰·罗伯茨 Ty Roberts
◎主  演 罗伯特·杜瓦尔 Robert Duvall
       凡妮莎·肖 Vinessa Shaw
       马丁·辛 Martin Sheen
       卢克·威尔逊 Luke Wilson
       韦恩·奈特 Wayne Knight
       特里特·威廉斯 Treat Williams
       卡尔森·扬 Carlson Young
       凯莉·弗莱 Kelly Frye
       扎克·罗斯 Zach Rose
       莱恩·加里逊 Lane Garrison
       露西·浮士德 Lucy Faust
       雅库布·洛弗兰德 Jacob Lofland
       斯科特·黑兹 Scott Haze
       娜塔莎·巴塞特 Natasha Bassett
       朗·怀特 Ron White
       拉里·派恩 Larry Pine
       Heath Freeman Heath Freeman
       杰克·奥斯汀·沃克 Jake Austin Walker
       鲁斯特·麦康纳 Rooster McConaughey
       加文·沃伦 Gavin Warren
       萨普莱·巴里纳 Sampley Barinaga
       迈克尔·格霍尔克 Michael Gohlke
       维多利亚·佩吉·沃特金斯 Victoria Paige Watkins
       Victoria Paige Meyerink Victoria Paige Meyerink
       David Duval David Duval

◎标  签 传记 | 运动 | 2021 | 美国电影 | 美国 | 电影 | 体育 | 音

◎简  介

  Haunted by his mysterious past, a devoted high school football coach leads a scrawny team of orphans to the state championship during the Great Depression and inspires a broken nation along the way.
Video
ID                                       : 1
Format                                   : AVC
Format/Info                              : Advanced Video Codec
Format profile                           :
Format settings                          : CABAC / 12 Ref Frames
Format settings, CABAC                   : Yes
Format settings, Reference frames        : 12 frames
Codec ID                                 : V_MPEG4/ISO/AVC
Duration                                 : 1 h 57 min
Bit rate                                 : 11.2 Mb/s
Width                                    : 1 280 pixels
Height                                   : 536 pixels
Display aspect ratio                     : 2.40:1
Frame rate mode                          : Constant
Frame rate                               : 23.976 (24000/1001/189150) FPS
Color space                              : YUV
Chroma subsampling                       : 4:2:0
Bit depth                                : 8 bits
Scan type                                : Progressive
Bits/(Pixel*Frame)                       : 0.679
Stream size                              : 9.20 GiB (88%)
Writing library                          : x264 core 157 r2938 2b00a84  Mod
Encoding settings                        : cabac=1 / ref=12 / deblock=1:-3:-3 / analyse=0x3:0x133 / me=umh / subme=10 / psy=1 / psy_rd=1.05:0.00 / mixed_ref=1 / me_range=32 / chroma_me=1 / trellis=2 / 8x8dct=1 / cqm=0 / deadzone=21,11 / fast_pskip=0 / chroma_qp_offset=-2 / threads=12 / lookahead_threads=2 / sliced_threads=0 / nr=0 / decimate=0 / interlaced=0 / bluray_compat=0 / constrained_intra=0 / bframes=8 / b_pyramid=2 / b_adapt=2 / b_bias=0 / direct=3 / weightb=1 / open_gop=0 / weightp=2 / keyint=250 / keyint_min=24 / scenecut=40 / intra_refresh=0 / rc_lookahead=250 / rc=crf / mbtree=0 / crf=16.8 / qcomp=0.60 / qpmin=0 / qpmax=69 / qpstep=4 / vbv_maxrate=62500 / vbv_bufsize=78125 / crf_max=0.0 / nal_hrd=none / filler=0 / ip_ratio=1.30 / pb_ratio=1.20 / aq=3:0.80
Language                                 : English
Default                                  : Yes
Forced                                   : No
Color range                              : Limited
Color primaries                          : BT.709
Matrix coefficients                      : BT.709

Audio
ID                                       : 2
Format                                   : DTS
Format/Info                              : Digital Theater Systems
Codec ID                                 : A_DTS
Duration                                 : 1 h 57 min
Bit rate mode                            : Constant
Bit rate                                 : 1 509 kb/s
Channel(s)                               : 6 channels
Channel layout                           : C L R Ls Rs LFE
Sampling rate                            : 48.0 kHz
Frame rate                               : 93.750 FPS (512 SPF)
Bit depth                                : 16 bits
Compression mode                         : Lossy
Stream size                              : 1.24 GiB (12%)
Language                                 : English
Default                                  : Yes
Forced                                   : No

Text
ID                                       : 3
Format                                   : UTF-8
Codec ID                                 : S_TEXT/UTF8
Codec ID/Info                            : UTF-8 Plain Text
Duration                                 : 1 h 50 min
Bit rate                                 : 83 b/s
Count of elements                        : 1974
Stream size                              : 67.8 KiB (0%)
Title                                    : SRT
Language                                 : English
Default                                  : Yes
Forced                                   : No

Menu
00:00:00.000                             : Chapter 01
00:08:33.847                             : Chapter 02
00:18:05.459                             : Chapter 03
00:22:46.490                             : Chapter 04
00:30:16.106                             : Chapter 05
00:38:09.078                             : Chapter 06
00:44:24.829                             : Chapter 07
00:48:48.634                             : Chapter 08
00:53:53.147                             : Chapter 09
00:58:59.244                             : Chapter 10
01:05:08.655                             : Chapter 11
01:10:51.956                             : Chapter 12
01:19:33.602                             : Chapter 13
01:29:04.965                             : Chapter 14
01:39:28.963                             : Chapter 15
01:49:11.295                             : Chapter 16

9521851c04fcf03f63661b56467871c5.png

[/url]43c2b5dd6b0ca97a6adec9a3e503d1a5.png

[/url]



                                                                                                                                                                                                        
                                                                                                                                                                                                                                                                                                                                                                                                                                                                                                                                                                                                                                                                                                                                                                                                                                                        
49e12d160b0634d76335d42ce6ca58b1.torrent (13.67 KB, 下载次数: 0)

回复

使用道具 举报

小黑屋|西西论坛

本网站所有资源来自网络,如无意中侵犯了您的权益,请发邮件至 [email protected],立即清除相关链接

GMT+8, 2021-9-19 09:52 , Processed in 0.120570 second(s), 17 queries .

Powered by Discuz! X3.2

© 2001-2013 Comsenz Inc.

快速回复 返回顶部 返回列表