西西论坛

 找回密码
 立即注册
搜索

小行星大末日 Asteroid.a.Geddon.2020.720p.BluRay.x264-UNVEiL 1.96GB

[复制链接]
admin 发表于 2021-9-1 19:44:08 | 显示全部楼层 |阅读模式
小行星大末日 Asteroid.a.Geddon.2020.720p.BluRay.x264-UNVEiL 1.96GB                                                                                                                                                                                                                                                                                                                                                                                                                                                                                                                                        -->
帖子完整标题:小行星大末日 Asteroid.a.Geddon.2020.720p.BluRay.x264-UNVEiL 1.96GB



acdc3feb134d9b60dfb59627479f9f7f.jpg



◎译  名 小行星大末日
◎片  名 Asteroid-a-Geddon
◎年  代 2020
◎产  地 美国
◎类  别 动作
◎语  言 英语
◎上映日期 2020-10-23(美国)
◎豆瓣评分 /10 from 0 users
◎豆瓣链接 
◎片  长 87分钟
◎导  演 吉奥夫·米德 Geoff Meed
◎编  剧 吉奥夫·米德 Geoff Meed
◎主  演 埃里克·罗伯茨 Eric Roberts
       克雷格·格利斯 Craig Gellis
       雷吉娜·麦基·雷德翁 Regina McKee Redwing
       肖恩 C.菲利普斯 Shawn C. Phillips

◎标  签 科幻 | 灾难 | 美国电影 | 美国 | 动作 | 剧情 | 2020 | 睡着了

◎简  介

  A global scientific summit debates and fails on a plan to stop a massive asteroid heading straight for Earth, with all countries blaming each other for the impeding disaster. With communications tense, the daughter of a tech billionaire assembles her own team of specialists to try to destroy the asteroid before it is too late.
Video
ID                                       : 1
Format                                   : AVC
Format/Info                              : Advanced Video Codec
Format profile                           :
Format settings                          : CABAC / 8 Ref Frames
Format settings, CABAC                   : Yes
Format settings, Reference frames        : 8 frames
Codec ID                                 : V_MPEG4/ISO/AVC
Duration                                 : 1 h 27 min
Bit rate                                 : 2 580 kb/s
Width                                    : 1 280 pixels
Height                                   : 536 pixels
Display aspect ratio                     : 2.40:1
Frame rate mode                          : Constant
Frame rate                               : 23.976 (24000/1001/189150) FPS
Color space                              : YUV
Chroma subsampling                       : 4:2:0
Bit depth                                : 8 bits
Scan type                                : Progressive
Bits/(Pixel*Frame)                       : 0.157
Stream size                              : 1.57 GiB (80%)
Writing library                          : x264 core 164 r3065 ae03d92
Encoding settings                        : cabac=1 / ref=8 / deblock=1:-3:-3 / analyse=0x3:0x133 / me=umh / subme=9 / psy=1 / psy_rd=1.00:0.00 / mixed_ref=1 / me_range=16 / chroma_me=1 / trellis=2 / 8x8dct=1 / cqm=0 / deadzone=21,11 / fast_pskip=0 / chroma_qp_offset=-2 / threads=17 / lookahead_threads=1 / sliced_threads=0 / nr=0 / decimate=1 / interlaced=0 / bluray_compat=0 / constrained_intra=0 / bframes=3 / b_pyramid=2 / b_adapt=2 / b_bias=0 / direct=3 / weightb=1 / open_gop=0 / weightp=2 / keyint=250 / keyint_min=23 / scenecut=40 / intra_refresh=0 / rc_lookahead=60 / rc=crf / mbtree=1 / crf=17.0 / qcomp=0.60 / qpmin=0 / qpmax=69 / qpstep=4 / ip_ratio=1.40 / aq=1:1.00
Language                                 : English
Default                                  : Yes
Forced                                   : No

Audio
ID                                       : 2
Format                                   : AC-3
Format/Info                              : Audio Coding 3
Commercial name                          : Dolby Digital
Codec ID                                 : A_AC3
Duration                                 : 1 h 27 min
Bit rate mode                            : Constant
Bit rate                                 : 640 kb/s
Channel(s)                               : 6 channels
Channel layout                           : L R C LFE Ls Rs
Sampling rate                            : 48.0 kHz
Frame rate                               : 31.250 FPS (1536 SPF)
Compression mode                         : Lossy
Stream size                              : 399 MiB (20%)
Language                                 : English
Service kind                             : Complete Main
Default                                  : Yes
Forced                                   : No

Text #1
ID                                       : 3
Format                                   : UTF-8
Codec ID                                 : S_TEXT/UTF8
Codec ID/Info                            : UTF-8 Plain Text
Duration                                 : 1 h 19 min
Bit rate                                 : 0 b/s
Count of elements                        : 13
Stream size                              : 358 Bytes (0%)
Title                                    : forced
Language                                 : English
Default                                  : Yes
Forced                                   : Yes

Text #2
ID                                       : 4
Format                                   : PGS
Muxing mode                              : zlib
Codec ID                                 : S_HDMV/PGS
Codec ID/Info                            : Picture based subtitle format used on BDs/HD-DVDs
Duration                                 : 1 h 19 min
Bit rate                                 : 353 b/s
Count of elements                        : 25
Stream size                              : 207 KiB (0%)
Default                                  : No
Forced                                   : No

Text #3
ID                                       : 5
Format                                   : PGS
Muxing mode                              : zlib
Codec ID                                 : S_HDMV/PGS
Codec ID/Info                            : Picture based subtitle format used on BDs/HD-DVDs
Duration                                 : 1 h 23 min
Bit rate                                 : 573 b/s
Count of elements                        : 38
Stream size                              : 352 KiB (0%)
Default                                  : No
Forced                                   : No

Menu
00:00:00.000                             : en:Chapter 01
00:09:17.182                             : en:Chapter 02
00:20:00.699                             : en:Chapter 03
00:28:19.281                             : en:Chapter 04
00:38:48.326                             : en:Chapter 05
00:49:59.496                             : en:Chapter 06
00:59:56.968                             : en:Chapter 07
01:09:44.555                             : en:Chapter 08
01:20:04.800                             : en:Chapter 09
01:23:59.993                             : en:Chapter 10

613de68f9e07f584d78f97bba3b17c11.jpg





                                                                                                                                                                                                        
                                                                                                                                                                                                                                                                                                                                                                                                                                                                                                                                                                                                                                                                                                                                                                                                                                                        
09f88f1ea8fc039d69c672c07af452bc.torrent (20.34 KB, 下载次数: 0)

回复

使用道具 举报

小黑屋|西西论坛

本网站所有资源来自网络,如无意中侵犯了您的权益,请发邮件至 [email protected],立即清除相关链接

GMT+8, 2021-9-19 09:53 , Processed in 0.113114 second(s), 17 queries .

Powered by Discuz! X3.2

© 2001-2013 Comsenz Inc.

快速回复 返回顶部 返回列表