西西论坛

 找回密码
 立即注册
搜索

[雨和你的故事][纯净版][BT下载][WEB-MKV/3.97GB][简繁字幕][1080P][H265编码][韩国,. ...

[复制链接]
admin 发表于 2021-8-18 23:51:15 | 显示全部楼层 |阅读模式
-->
字幕为软字幕,电脑端推荐使用播放器:PotPlayer,完美解码,KMPLAYER,其他播放器请自行尝试。
字幕为软字幕,移动端推荐使用播放器:MxPlayer,nPlayer,infuse ,其他播放器请自行尝试。


◎译  名 雨和你的故事 / 雨与你的故事 / 如果雨之后(台) / Endless Rain
◎片  名 ?? ??? ???
◎年  代 2021
◎产  地 韩国
◎类  别 剧情 / 爱情
◎语  言 韩语
◎上映日期 2021-04-28(韩国)
◎片  长 117分钟
◎导  演 曹溱模 Jin-mo Cho (id:1345724)
◎编  剧 刘圣叶 Sung-Hyub Yu (id:1359477)
◎演  员 千禹熙 Cheon Woo-Hee (id:1331105)
       姜河那 Ha-neul Kang (id:1330012)
       姜素拉 So-Ra Kang (id:1315766)
       林周焕 Joo-hwan Lim (id:1275862)
       李雪 Lee Seol (id:1401326)
       姜英锡 Kang Young-seok (id:1381263)
       成民秀 Min-soo Sung (id:1386229)
       李杭娜 Hang-na Lee (id:1358604)
       吴贞媛 Jeong-won Woo (id:1439554)
       高宇临 Ko Woo-rim (id:1381659)
       崔明彬 Myung-bin Choi (id:1381282)
       高健汉 Gun-han Ko (id:1381250)
       柳惠琳 Hye-rin Ryu (id:1383747)
       朴世贤 Se Hyun Park (id:1433116)
       玉珠理 Joo-ri Ok (id:1399889)
       曹溱模 Jin-mo Cho (id:1345724)
       金成钧 Sung-Kyun Kim (id:1324507)

◎标  签 韩国 / 爱情 / 韩国电影 / 姜河那 / 青春 / 2021 / 姜素拉 / 千玗嬉

◎简  介
  讲述了长时间思念对方却无法相见的男女之间的故事
##### MediaInfo ######
General
Unique ID                                : 39586348570947286699675593941243137203 (0x1DC80DAC4A05D92CBB93D61F18000CB3)
Complete name                            :
Format                                   : Matroska
Format version                           : Version 4
File size                                : 3.97 GiB
Duration                                 : 1 h 57 min
Overall bit rate                         : 4 847 kb/s
Encoded date                             : UTC 2021-08-15 05:00:17
Writing application                      : mkvmerge v56.1.0 ('My Friend') 64-bit
Writing library                          : libebml v1.4.2 + libmatroska v1.6.4

Video
ID                                       : 1
Format                                   : HEVC
Format/Info                              : High Efficiency Video Coding
Format profile                           : @Main
Codec ID                                 : V_MPEGH/ISO/HEVC
Duration                                 : 1 h 57 min
Bit rate                                 : 4 655 kb/s
Width                                    : 1 920 pixels
Height                                   : 1 080 pixels
Display aspect ratio                     : 16:9
Frame rate mode                          : Constant
Frame rate                               : 24.000 FPS
Color space                              : YUV
Chroma subsampling                       : 4:2:0
Bit depth                                : 8 bits
Bits/(Pixel*Frame)                       : 0.094
Stream size                              : 3.81 GiB (96%)
Default                                  : Yes
Forced                                   : No

Audio
ID                                       : 2
Format                                   : AAC LC
Format/Info                              : Advanced Audio Codec Low Complexity
Codec ID                                 : A_AAC-2
Duration                                 : 1 h 57 min
Bit rate                                 : 192 kb/s
Channel(s)                               : 2 channels
Channel layout                           : L R
Sampling rate                            : 44.1 kHz
Frame rate                               : 43.066 FPS (1024 SPF)
Compression mode                         : Lossy
Stream size                              : 159 MiB (4%)
Language                                 : Korean
Default                                  : Yes
Forced                                   : No

Text #1
ID                                       : 3
Format                                   : UTF-8
Codec ID                                 : S_TEXT/UTF8
Codec ID/Info                            : UTF-8 Plain Text
Duration                                 : 1 h 52 min
Bit rate                                 : 36 b/s
Count of elements                        : 1210
Stream size                              : 30.3 KiB (0%)
Title                                    : Chinese Simplified
Language                                 : Chinese
Default                                  : Yes
Forced                                   : No

Text #2
ID                                       : 4
Format                                   : UTF-8
Codec ID                                 : S_TEXT/UTF8
Codec ID/Info                            : UTF-8 Plain Text
Duration                                 : 1 h 52 min
Bit rate                                 : 36 b/s
Count of elements                        : 1210
Stream size                              : 30.3 KiB (0%)
Title                                    : Chinese Traditional
Language                                 : Chinese
Default                                  : No
Forced                                   : No

Text #3
ID                                       : 5
Format                                   : UTF-8
Codec ID                                 : S_TEXT/UTF8
Codec ID/Info                            : UTF-8 Plain Text
Duration                                 : 1 h 53 min
Bit rate                                 : 36 b/s
Count of elements                        : 1074
Stream size                              : 30.0 KiB (0%)
Title                                    : English
Language                                 : English
Default                                  : No
Forced                                   : No



本人发布所有电影,均为无水印高清版,拒绝任何枪版。拒绝任何水印广告!
新种请使用utorrent,qBittorrent,transmission等标准BT软件下载!以获取最快速度。

                                                                                                                                                                                                        
                                                                                                                                                                                                                                                                                                                                                                                                                                                                                                                                                                                                                                                                                                                                                                                                                                                        
1d55cda3e0cdf463a77e28e62fdba697.torrent (13.71 KB, 下载次数: 0)

回复

使用道具 举报

小黑屋|西西论坛

本网站所有资源来自网络,如无意中侵犯了您的权益,请发邮件至 [email protected],立即清除相关链接

GMT+8, 2021-9-18 03:20 , Processed in 0.323373 second(s), 22 queries .

Powered by Discuz! X3.2

© 2001-2013 Comsenz Inc.

快速回复 返回顶部 返回列表