西西论坛

 找回密码
 立即注册
搜索

[OK老板娘][纯净版][BT下载][WEB-MKV/1.61GB][简繁字幕][1080P][H265编码][喜剧,韩国, ...

[复制链接]
admin 发表于 2021-8-18 23:51:10 | 显示全部楼层 |阅读模式
-->
字幕为软字幕,电脑端推荐使用播放器:PotPlayer,完美解码,KMPLAYER,其他播放器请自行尝试。
字幕为软字幕,移动端推荐使用播放器:MxPlayer,nPlayer,infuse ,其他播放器请自行尝试。
955441a961465d74432a924ad6a1ff95.jpg



◎译  名 OK老板娘 / 特务打爆机(港) / 特务搞飞机(台) / OK! 夫人 / Okay! Madam / Ok! Madam
◎片  名 ??? ??
◎年  代 2020
◎产  地 韩国
◎类  别 喜剧
◎语  言 韩语
◎上映日期 2020-08-12(韩国)
◎片  长 101分钟
◎导  演 李澈河 Cheol-ha Lee (id:1242438)
◎演  员 严正化 Jeong-hwa Eom (id:1023400)
       朴圣雄 Seong-Woong Park (id:1327932)
       李相仑 Sang-yoon Lee (id:1326773)
       裴正南 Jung-nam Bae (id:1386436)
       李善彬 Sun-bin Lee (id:1362611)
       周锡泰 Suk-tae Joo (id:1375770)
       郭振锡 Jin-seok Kwak (id:1387820)
       全秀景 Soo-kyung Chun (id:1340280)
       金汉钟 Kim Han-jong (id:1382565)
       金秉玉 Byeong-ok Kim (id:1319357)
       尹志温 Ji-on Yoon (id:1403143)
       朴智一 Ji-il Park (id:1376739)
       尹大烈 Dae-yeol Yoon (id:1399216)
       闵彩恩 Chae-eun Min (id:1452193)
       金圭白 Kim Kyu Baek (id:1453701)

◎标  签 喜剧 / 韩国 / 搞笑 / 特工 / 动作 / 2020 / 家庭 / 犯罪

◎简  介
  该片讲述了一对夫妇在生平第一次海外旅行中,意外的卷入了劫持飞机的事件,他们收起平凡的过去,通过一直隐藏的内功展开营救作战的故事。
##### MediaInfo ######
General
Unique ID                                : 189368611250119073605799846664406030878 (0x8E771161759DA9C44A459583ECA7DA1E)
Complete name                            :
Format                                   : Matroska
Format version                           : Version 4
File size                                : 1.60 GiB
Duration                                 : 1 h 36 min
Overall bit rate                         : 2 370 kb/s
Encoded date                             : UTC 2021-08-15 05:10:48
Writing application                      : mkvmerge v56.1.0 ('My Friend') 64-bit
Writing library                          : libebml v1.4.2 + libmatroska v1.6.4

Video
ID                                       : 1
Format                                   : HEVC
Format/Info                              : High Efficiency Video Coding
Format profile                           : @Main
Codec ID                                 : V_MPEGH/ISO/HEVC
Duration                                 : 1 h 36 min
Bit rate                                 : 2 178 kb/s
Width                                    : 1 920 pixels
Height                                   : 1 032 pixels
Display aspect ratio                     : 1.85:1
Frame rate mode                          : Constant
Frame rate                               : 24.000 FPS
Color space                              : YUV
Chroma subsampling                       : 4:2:0
Bit depth                                : 8 bits
Bits/(Pixel*Frame)                       : 0.046
Stream size                              : 1.47 GiB (92%)
Default                                  : Yes
Forced                                   : No

Audio
ID                                       : 2
Format                                   : AAC LC
Format/Info                              : Advanced Audio Codec Low Complexity
Codec ID                                 : A_AAC-2
Duration                                 : 1 h 36 min
Bit rate                                 : 192 kb/s
Channel(s)                               : 2 channels
Channel layout                           : L R
Sampling rate                            : 44.1 kHz
Frame rate                               : 43.066 FPS (1024 SPF)
Compression mode                         : Lossy
Stream size                              : 131 MiB (8%)
Language                                 : Korean
Default                                  : Yes
Forced                                   : No

Text #1
ID                                       : 3
Format                                   : UTF-8
Codec ID                                 : S_TEXT/UTF8
Codec ID/Info                            : UTF-8 Plain Text
Duration                                 : 1 h 32 min
Bit rate                                 : 43 b/s
Count of elements                        : 1314
Stream size                              : 29.2 KiB (0%)
Title                                    : Chinese Simplified
Language                                 : Chinese
Default                                  : Yes
Forced                                   : No

Text #2
ID                                       : 4
Format                                   : UTF-8
Codec ID                                 : S_TEXT/UTF8
Codec ID/Info                            : UTF-8 Plain Text
Duration                                 : 1 h 32 min
Bit rate                                 : 43 b/s
Count of elements                        : 1314
Stream size                              : 29.2 KiB (0%)
Title                                    : Chinese Traditional
Language                                 : Chinese
Default                                  : No
Forced                                   : No

Text #3
ID                                       : 5
Format                                   : UTF-8
Codec ID                                 : S_TEXT/UTF8
Codec ID/Info                            : UTF-8 Plain Text
Duration                                 : 1 h 32 min
Bit rate                                 : 47 b/s
Count of elements                        : 1314
Stream size                              : 32.0 KiB (0%)
Title                                    : English
Language                                 : English
Default                                  : No
Forced                                   : No



本人发布所有电影,均为无水印高清版,拒绝任何枪版。拒绝任何水印广告!
新种请使用utorrent,qBittorrent,transmission等标准BT软件下载!以获取最快速度。

                                                                                                                                                                                                        
                                                                                                                                                                                                                                                                                                                                                                                                                                                                                                                                                                                                                                                                                                                                                                                                                                                        
5a7079369c57d5826a97b0ba71b089b9.torrent (7.79 KB, 下载次数: 0)

回复

使用道具 举报

小黑屋|西西论坛

本网站所有资源来自网络,如无意中侵犯了您的权益,请发邮件至 [email protected],立即清除相关链接

GMT+8, 2021-9-18 02:49 , Processed in 0.167504 second(s), 17 queries .

Powered by Discuz! X3.2

© 2001-2013 Comsenz Inc.

快速回复 返回顶部 返回列表