西西论坛

 找回密码
 立即注册
搜索

[BD-4K] WeWork:470美元独角兽的崛起与破裂 WeWork.2021.2160p.HULU.WEBRip.x265.10bit.SDR.DD ...

[复制链接]
电影首发 发表于 2021-4-20 11:08:04 | 显示全部楼层 |阅读模式
-->
帖子完整标题:WeWork:470美元独角兽的崛起与破裂 WeWork.2021.2160p.HULU.WEBRip.x265.10bit.SDR.DDP5.1-KOGi 9.36GB


        

[/url]

◎译  名 WeWork:470美元独角兽的崛起与破裂/WeWork: or the Making and Breaking of a $47 Billion Unicorn
◎片  名 WeWork
◎年  代 2021
◎产  地 美国
◎类  别 纪录片
◎语  言 英语
◎上映日期 2021-03-17(西南偏南电影节) / 2021-04-02(美国)
◎IMDb评分  6.6/10 from 775 users
◎  
◎豆瓣评分 7.8/10 from 61 users
◎ 
◎片  长 104分钟
◎导  演 杰德·罗斯坦 Jed Rothstein
◎编  剧 杰德·罗斯坦 Jed Rothstein
◎主  演 格温妮斯·帕特洛 Gwyneth Paltrow
       阿什顿·库彻 Ashton Kutcher
       阿维夫·格芬 Aviv Geffen

◎标  签 纪录片 | wework | 美国 | TECHNOLOGY | CAPITALISM | 美國 | 电影 | 2021

◎简  介

  WeWork: or the Making and Breaking of a $47 Billion Unicorn explores the rise and fall of one of the biggest corporate flameouts and venture capitalist bubbles in recent years – the story of WeWork, and its hippie-messianic leader Adam Neumann.
Video
ID                                       : 1
Format                                   : HEVC
Format/Info                              : High Efficiency Video Coding
Format profile                           : Main @Main
Codec ID                                 : V_MPEGH/ISO/HEVC
Duration                                 : 1 h 41 min
Bit rate                                 : 12.9 Mb/s
Width                                    : 3 840 pixels
Height                                   : 2 160 pixels
Display aspect ratio                     : 16:9
Frame rate mode                          : Constant
Frame rate                               : 23.976 (24000/1001/189150) FPS
Color space                              : YUV
Chroma subsampling                       : 4:2:0
Bit depth                                : 10 bits
Bits/(Pixel*Frame)                       : 0.065
Stream size                              : 9.17 GiB (98%)
Language                                 : English
Default                                  : Yes
Forced                                   : No

Audio
ID                                       : 2
Format                                   : E-AC-3
Format/Info                              : Enhanced AC-3
Commercial name                          : Dolby Digital Plus
Codec ID                                 : A_EAC3
Duration                                 : 1 h 41 min
Bit rate mode                            : Constant
Bit rate                                 : 256 kb/s
Channel(s)                               : 6 channels
Channel layout                           : L R C LFE Ls Rs
Sampling rate                            : 48.0 kHz
Frame rate                               : 31.250 FPS (1536 SPF)
Compression mode                         : Lossy
Stream size                              : 186 MiB (2%)
Language                                 : English
Service kind                             : Complete Main
Default                                  : Yes
Forced                                   : No

Text #1
ID                                       : 3
Format                                   : UTF-8
Codec ID                                 : S_TEXT/UTF8
Codec ID/Info                            : UTF-8 Plain Text
Duration                                 : 1 h 39 min
Bit rate                                 : 129 b/s
Count of elements                        : 1945
Stream size                              : 94.3 KiB (0%)
Title                                    : English
Language                                 : English
Default                                  : No
Forced                                   : No

Text #2
ID                                       : 4
Format                                   : UTF-8
Codec ID                                 : S_TEXT/UTF8
Codec ID/Info                            : UTF-8 Plain Text
Duration                                 : 1 h 39 min
Bit rate                                 : 134 b/s
Count of elements                        : 2000
Stream size                              : 98.4 KiB (0%)
Title                                    : Spanish; Castilian
Language                                 : Spanish
Default                                  : No
Forced                                   : No




                                                                                                                                                                                                        
                                                                                                                                                                                                                                                                                                                                                                                                                                                                                                                                                                                                                                                                                                                                                                                                                                                        
334758ba1c201b7dce2d3a57934c03a7.zip (47.56 KB, 下载次数: 0)

回复

使用道具 举报

小黑屋|西西论坛

本网站所有资源来自网络,如无意中侵犯了您的权益,请发邮件至 [email protected],立即清除相关链接

GMT+8, 2021-9-26 20:58 , Processed in 0.115544 second(s), 17 queries .

Powered by Discuz! X3.2

© 2001-2013 Comsenz Inc.

快速回复 返回顶部 返回列表