西西论坛

 找回密码
 立即注册
搜索

[BD-4K] 信使 The.Courier.2020.2160p.AMZN.WEB-DL.x265.10bit.HDR10Plus.DDP5.1-RUMOUR 11.79 ...

[复制链接]
电影首发 发表于 2021-4-20 11:08:04 | 显示全部楼层 |阅读模式
-->
帖子完整标题:信使 The.Courier.2020.2160p.AMZN.WEB-DL.x265.10bit.HDR10Plus.DDP5.1-RUMOUR 11.79GB


        

[/url]

◎译  名 信使/Ironbark/情报人员/铁幕行动(台)/铁皮木
◎片  名 The Courier
◎年  代 2020
◎产  地 英国
◎类  别 惊悚
◎语  言 英语
◎上映日期 2020-01-24(圣丹斯电影节) / 2021-03-19(美国) / 2021-05-17(英国)
◎IMDb评分  7.2/10 from 3539 users
◎  
◎豆瓣评分 7.3/10 from 739 users
◎ 
◎片  长 111分钟
◎导  演 多米尼克·库克 Dominic Cooke
◎编  剧 汤姆·奥康纳 Tom O'Connor
◎主  演 本尼迪克特·康伯巴奇 Benedict Cumberbatch
       瑞秋·布罗斯纳安 Rachel Brosnahan
       梅拉布·尼尼泽 Merab Ninidze
       玛丽亚·米罗诺娃 Mariya Mironova
       安东·莱瑟 Anton Lesser
       安格斯·瑞特 Angus Wright
       大卫·巴克·琼斯 David Bark-Jones
       米尔斯·理查森 Miles Richardson
       杰西·巴克利 Jessie Buckley
       基里尔·彼洛高夫 Kirill Pirogov
       Yuri Klimov
       马里安·洛伦西克 Marian Lorencik
       艾丽丝·奥尔尤因 Alice Orr-Ewing
       乔纳森·哈登 Jonathan Harden
       伊莲娜·艾尔米纳斯 Elina Alminas
       阿勒斯·比利克 Ales Bilík
       安德烈·库尔加诺夫 Andrey Kurganov
       奥德·马利 Ondrej Maly
       贝恩·科拉科 Bern Colla?o
       迪诺·布加迪 Deano Bugatti
       拉塞尔·巴洛格 Russell Balogh
       约瑟夫·巴德拉玛 Joseph Balderrama
       Angus Wright

◎标  签 间谍 | 英国 | 冷战 | 卷福 | BenedictCumberbatch | 战争 | 英国电影 | 本尼

◎简  介

  本尼迪克特·康伯巴奇将出演冷战时期的英国“间谍”Greville Wynne,他将主演FilmNation投资的新片《铁皮木》(Ironbark),据悉风格会类似康伯巴奇也出演了的《锅匠,裁缝,士兵,间谍》,改编自Wynne的真实故事:他是一名英国商人,在冷战时期帮助CIA渗透了苏联的核武器项目,他和他的苏联消息源Oleg Penkovsky提供了终结古巴导弹危机的关键情报。该片将由Dominic Cooke(《在切瑟尔海滩上》)执导,他与康伯巴奇已合作过BBC剧集《空王冠》,初版剧本编剧是Tom O’Connor(《王牌保镖》)。
Video
ID                                       : 1
Format                                   : HEVC
Format/Info                              : High Efficiency Video Coding
Format profile                           : Main @Main
HDR format                               : SMPTE ST 2094 App 4, Version 1, HDR10+ Profile B compatible
Codec ID                                 : V_MPEGH/ISO/HEVC
Duration                                 : 1 h 52 min
Bit rate                                 : 14.4 Mb/s
Width                                    : 3 840 pixels
Height                                   : 1 600 pixels
Display aspect ratio                     : 2.40:1
Frame rate mode                          : Constant
Frame rate                               : 23.976 (24000/1001/189150) FPS
Color space                              : YUV
Chroma subsampling                       : 4:2:0
Bit depth                                : 10 bits
Bits/(Pixel*Frame)                       : 0.098
Stream size                              : 11.3 GiB (96%)
Language                                 : English
Default                                  : Yes
Forced                                   : No
Color range                              : Limited
Color primaries                          : BT.2020
Transfer characteristics                 : PQ
Matrix coefficients                      : BT.2020 non-constant
Mastering display color primaries        : Display P3
Mastering display luminance              : min: 0.0001 cd/m2, max: 1000 cd/m2
Maximum Content Light Level              : 863 cd/m2
Maximum Frame-Average Light Level        : 115 cd/m2

Audio
ID                                       : 2
Format                                   : E-AC-3
Format/Info                              : Enhanced AC-3
Commercial name                          : Dolby Digital Plus
Codec ID                                 : A_EAC3
Duration                                 : 1 h 52 min
Bit rate mode                            : Constant
Bit rate                                 : 640 kb/s
Channel(s)                               : 6 channels
Channel layout                           : L R C LFE Ls Rs
Sampling rate                            : 48.0 kHz
Frame rate                               : 31.250 FPS (1536 SPF)
Compression mode                         : Lossy
Stream size                              : 513 MiB (4%)
Language                                 : English
Service kind                             : Complete Main
Default                                  : Yes
Forced                                   : No

Text
ID                                       : 3
Format                                   : UTF-8
Codec ID                                 : S_TEXT/UTF8
Codec ID/Info                            : UTF-8 Plain Text
Duration                                 : 1 h 43 min
Bit rate                                 : 53 b/s
Count of elements                        : 1278
Stream size                              : 40.2 KiB (0%)
Title                                    : English
Language                                 : English
Default                                  : No
Forced                                   : No




                                                                                                                                                                                                        
                                                                                                                                                                                                                                                                                                                                                                                                                                                                                                                                                                                                                                                                                                                                                                                                                                                        
9a62fba01919b69726379ecd87c71323.zip (59.73 KB, 下载次数: 0)

回复

使用道具 举报

小黑屋|西西论坛

本网站所有资源来自网络,如无意中侵犯了您的权益,请发邮件至 [email protected],立即清除相关链接

GMT+8, 2021-9-26 20:48 , Processed in 0.074544 second(s), 17 queries .

Powered by Discuz! X3.2

© 2001-2013 Comsenz Inc.

快速回复 返回顶部 返回列表