西西论坛

 找回密码
 立即注册
搜索

[BD-4K] 让他们说吧/畅所欲言 Let.Them.All.Talk.2020.2160p.AMZN.WEB-DL.x265.10bit.HDR10Plu ...

[复制链接]
电影首发 发表于 2021-4-18 10:55:43 | 显示全部楼层 |阅读模式
-->
帖子完整标题:让他们说吧/畅所欲言 Let.Them.All.Talk.2020.2160p.AMZN.WEB-DL.x265.10bit.HDR10Plus.DDP5.1-MZABI 12.03GB



[/url]

◎译  名 让他们说吧/畅所欲言
◎片  名 Let Them All Talk
◎年  代 2020
◎产  地 美国
◎类  别 剧情 / 喜剧
◎语  言 英语
◎上映日期 2020-12-10(美国)
◎IMDb评分  6.1/10 from 7113 users
◎  
◎豆瓣评分 6.5/10 from 1108 users
◎ 
◎片  长 113分钟
◎导  演 史蒂文·索德伯格 Steven Soderbergh
◎编  剧 黛博拉·艾森伯格 Deborah Eisenberg
◎主  演 梅丽尔·斯特里普 Meryl Streep
       嘉玛·陈 Gemma Chan
       黛安·韦斯特 Dianne Wiest
       坎迪斯·伯根 Candice Bergen
       卢卡斯·赫奇斯 Lucas Hedges
       汉娜·詹姆斯 Hannah James
       玛丽·凯瑟琳·歌瑞森 Mary Catherine Garrison
       丹尼尔·阿尔格兰特 Daniel Algrant
       大卫·西格尔  David Siegel
       克里斯托弗·菲茨杰拉德 Christopher Fitzgerald

◎标  签 美国 | 梅丽尔·斯特里普 | 剧情 | 2020 | 史蒂文·索德伯格 | 美国电影 | 电影 | GemmaChan

◎简  介

  某知名小说家(斯特里普饰)要到英国去领奖,她的两位老朋友(坎迪斯·伯根和黛安·韦斯特饰)和侄子(卢卡斯·赫奇斯饰)与她一起乘船出行,在船上,大家掀起了一场充满回忆、遗憾和辩论的狂欢,她的侄子还跟她的助理(嘉玛·陈饰)培养了亲密关系。
Video
ID                                       : 1
Format                                   : HEVC
Format/Info                              : High Efficiency Video Coding
Format profile                           : Main @Main
HDR format                               : SMPTE ST 2094 App 4, Version 1, HDR10+ Profile B compatible
Codec ID                                 : V_MPEGH/ISO/HEVC
Duration                                 : 1 h 52 min
Bit rate                                 : 14.6 Mb/s
Width                                    : 3 840 pixels
Height                                   : 1 600 pixels
Display aspect ratio                     : 2.40:1
Frame rate mode                          : Constant
Frame rate                               : 23.976 (24000/1001/189150) FPS
Color space                              : YUV
Chroma subsampling                       : 4:2:0
Bit depth                                : 10 bits
Bits/(Pixel*Frame)                       : 0.099
Stream size                              : 11.5 GiB (96%)
Default                                  : Yes
Forced                                   : No
Color range                              : Limited
Color primaries                          : BT.2020
Transfer characteristics                 : PQ
Matrix coefficients                      : BT.2020 non-constant
Mastering display color primaries        : BT.2020
Mastering display luminance              : min: 0.0001 cd/m2, max: 1000 cd/m2
Maximum Content Light Level              : 434 cd/m2
Maximum Frame-Average Light Level        : 90 cd/m2

Audio
ID                                       : 2
Format                                   : E-AC-3
Format/Info                              : Enhanced AC-3
Commercial name                          : Dolby Digital Plus
Codec ID                                 : A_EAC3
Duration                                 : 1 h 52 min
Bit rate mode                            : Constant
Bit rate                                 : 640 kb/s
Channel(s)                               : 6 channels
Channel layout                           : L R C LFE Ls Rs
Sampling rate                            : 48.0 kHz
Frame rate                               : 31.250 FPS (1536 SPF)
Compression mode                         : Lossy
Stream size                              : 517 MiB (4%)
Title                                    : English
Language                                 : English
Service kind                             : Complete Main
Default                                  : Yes
Forced                                   : No

Text #1
ID                                       : 3
Format                                   : UTF-8
Codec ID                                 : S_TEXT/UTF8
Codec ID/Info                            : UTF-8 Plain Text
Duration                                 : 1 h 49 min
Bit rate                                 : 79 b/s
Count of elements                        : 2043
Stream size                              : 63.8 KiB (0%)
Title                                    : English
Language                                 : English
Default                                  : No
Forced                                   : No

Text #2
ID                                       : 4
Format                                   : UTF-8
Codec ID                                 : S_TEXT/UTF8
Codec ID/Info                            : UTF-8 Plain Text
Duration                                 : 1 h 52 min
Bit rate                                 : 57 b/s
Count of elements                        : 1439
Stream size                              : 47.4 KiB (0%)
Title                                    : European Spanish
Language                                 : Spanish
Default                                  : No
Forced                                   : No




                                                                                                                                                                                                        
                                                                                                                                                                                                                                                                                                                                                                                                                                                                                                                                                                                                                                                                                                                                                                                                                                                        
a4608f5850e33c9d59a0e73db5d7733c.zip (60.94 KB, 下载次数: 0)

回复

使用道具 举报

小黑屋|西西论坛

本网站所有资源来自网络,如无意中侵犯了您的权益,请发邮件至 [email protected],立即清除相关链接

GMT+8, 2021-9-26 22:14 , Processed in 0.114239 second(s), 17 queries .

Powered by Discuz! X3.2

© 2001-2013 Comsenz Inc.

快速回复 返回顶部 返回列表