西西论坛

 找回密码
 立即注册
搜索

热浪新潮 Saint.Tropez.Blues.1961.FRENCH.1080p.BluRay.x264.FLAC.2.0-PTer 7.94GB . ...

[复制链接]
电影首发 发表于 2021-4-8 15:26:03 | 显示全部楼层 |阅读模式
-->
帖子完整标题:热浪新潮 Saint.Tropez.Blues.1961.FRENCH.1080p.BluRay.x264.FLAC.2.0-PTer 7.94GB



[/url]

◎译  名 热浪新潮
◎片  名 Saint-Tropez Blues
◎年  代 1961
◎产  地 法国,意大利
◎类  别 剧情 / 喜剧
◎语  言 法语
◎上映日期 1961-07-21(法国)
◎IMDb评分  5.7/10 from 41 users
◎  
◎豆瓣评分 /10 from 0 users
◎ 
◎片  长 90分钟
◎导  演 马塞尔·穆西 Marcel Moussy
◎编  剧 马塞尔·穆西 Marcel Moussy
◎主  演 玛丽·拉福莱 Marie Laforêt
       Jacques Higelin
       皮埃尔·迈克尔 Pierre Micha?l
       斯特凡·奥德朗 Stéphane Audran

◎标  签 Italy | France

◎简  介

  暂无相关剧情介绍
Video
ID                                       : 1
Format                                   : AVC
Format/Info                              : Advanced Video Codec
Format profile                           :
Format settings                          : CABAC / 4 Ref Frames
Format settings, CABAC                   : Yes
Format settings, Reference frames        : 4 frames
Codec ID                                 : V_MPEG4/ISO/AVC
Duration                                 : 1 h 33 min
Bit rate                                 : 11.9 Mb/s
Width                                    : 1 792 pixels
Height                                   : 1 080 pixels
Display aspect ratio                     : 5:3
Frame rate mode                          : Constant
Frame rate                               : 24.000 FPS
Color space                              : YUV
Chroma subsampling                       : 4:2:0
Bit depth                                : 8 bits
Scan type                                : Progressive
Bits/(Pixel*Frame)                       : 0.255
Stream size                              : 7.77 GiB (98%)
Writing library                          : x264 core 157 r2932 303c484
Encoding settings                        : cabac=1 / ref=4 / deblock=1:-3:-3 / analyse=0x3:0x133 / me=umh / subme=11 / psy=1 / psy_rd=1.02:0.00 / mixed_ref=1 / me_range=32 / chroma_me=1 / trellis=2 / 8x8dct=1 / cqm=0 / deadzone=21,11 / fast_pskip=0 / chroma_qp_offset=-2 / threads=34 / lookahead_threads=8 / sliced_threads=0 / nr=0 / decimate=0 / interlaced=0 / bluray_compat=0 / constrained_intra=0 / bframes=16 / b_pyramid=2 / b_adapt=2 / b_bias=0 / direct=3 / weightb=1 / open_gop=0 / weightp=2 / keyint=250 / keyint_min=24 / scenecut=40 / intra_refresh=0 / rc_lookahead=250 / rc=crf / mbtree=0 / crf=21.0 / qcomp=0.60 / qpmin=0 / qpmax=69 / qpstep=4 / vbv_maxrate=62500 / vbv_bufsize=78125 / crf_max=0.0 / nal_hrd=none / filler=0 / ip_ratio=1.30 / pb_ratio=1.20 / aq=3:0.80
Language                                 : English
Default                                  : Yes
Forced                                   : No
Color range                              : Limited
Color primaries                          : BT.709
Matrix coefficients                      : BT.709

Audio
ID                                       : 2
Format                                   : FLAC
Format/Info                              : Free Lossless Audio Codec
Codec ID                                 : A_FLAC
Duration                                 : 1 h 33 min
Bit rate mode                            : Variable
Bit rate                                 : 232 kb/s
Channel(s)                               : 2 channels
Channel layout                           : L R
Sampling rate                            : 48.0 kHz
Frame rate                               : 11.719 FPS (4096 SPF)
Bit depth                                : 16 bits
Compression mode                         : Lossless
Stream size                              : 156 MiB (2%)
Writing library                          : libFLAC 1.2.1 (UTC 2007-09-17)
Language                                 : French
Default                                  : Yes
Forced                                   : No

Text #1
ID                                       : 3
Format                                   : UTF-8
Codec ID                                 : S_TEXT/UTF8
Codec ID/Info                            : UTF-8 Plain Text
Duration                                 : 1 h 31 min
Bit rate                                 : 37 b/s
Count of elements                        : 1024
Stream size                              : 25.1 KiB (0%)
Title                                    : SRT
Language                                 : English
Default                                  : Yes
Forced                                   : No

Text #2
ID                                       : 4
Format                                   : PGS
Muxing mode                              : zlib
Codec ID                                 : S_HDMV/PGS
Codec ID/Info                            : Picture based subtitle format used on BDs/HD-DVDs
Duration                                 : 1 h 31 min
Bit rate                                 : 22.9 kb/s
Count of elements                        : 2060
Stream size                              : 15.0 MiB (0%)
Language                                 : English
Default                                  : No
Forced                                   : No

Text #3
ID                                       : 5
Format                                   : PGS
Muxing mode                              : zlib
Codec ID                                 : S_HDMV/PGS
Codec ID/Info                            : Picture based subtitle format used on BDs/HD-DVDs
Duration                                 : 1 h 33 min
Bit rate                                 : 28.3 kb/s
Count of elements                        : 2390
Stream size                              : 18.9 MiB (0%)
Language                                 : French
Default                                  : No
Forced                                   : No

Menu
00:00:00.000                             : en:Chapter 1
00:07:24.958                             : en:Chapter 2
00:14:37.625                             : en:Chapter 3
00:24:01.875                             : en:Chapter 4
00:32:50.875                             : en:Chapter 5
00:41:11.750                             : en:Chapter 6
00:48:00.125                             : en:Chapter 7
00:54:12.500                             : en:Chapter 8
01:02:14.500                             : en:Chapter 9
01:11:01.000                             : en:Chapter 10
01:20:04.542                             : en:Chapter 11
01:26:38.167                             : en:Chapter 12

[/url]

[/url]

[/url]



                                                                                                                                                                                                        
                                                                                                                                                                                                                                                                                                                                                                                                                                                                                                                                                                                                                                                                                                                                                                                                                                                        
2148e4e1db6dc5f6e6af84f4a246a1cb.zip (40.39 KB, 下载次数: 0)

回复

使用道具 举报

小黑屋|西西论坛

本网站所有资源来自网络,如无意中侵犯了您的权益,请发邮件至 [email protected],立即清除相关链接

GMT+8, 2021-4-21 10:27 , Processed in 0.093493 second(s), 22 queries .

Powered by Discuz! X3.2

© 2001-2013 Comsenz Inc.

快速回复 返回顶部 返回列表