西西论坛

 找回密码
 立即注册
搜索

[4K-原盘] 范妮·莱的解救 Fanny.Lye.Deliverd.2019.EXTENDED.2160p.BluRay.REMUX.HEVC.DTS-HD.M ...

[复制链接]
电影首发 发表于 2021-4-4 07:50:10 | 显示全部楼层 |阅读模式
-->
帖子完整标题:范妮·莱的解救 Fanny.Lye.Deliverd.2019.EXTENDED.2160p.BluRay.REMUX.HEVC.DTS-HD.MA.5.1-FGT 57.13GB



[/url]

◎译  名 范妮·莱的解救/The Delivered/范妮·莱德
◎片  名 Fanny Lye Deliver'd
◎年  代 2019
◎产  地 英国,德国
◎类  别 剧情 / 惊悚 / 历史
◎语  言 英语
◎上映日期 2019-10-10(伦敦电影节) / 2020-06-26(英国)
◎IMDb评分  6.2/10 from 851 users
◎  
◎豆瓣评分 6.4/10 from 108 users
◎ 
◎片  长 112分钟
◎导  演 托马斯·克雷 Thomas Clay
◎编  剧 托马斯·克雷 Thomas Clay
◎主  演 玛克辛·皮克 Maxine Peake
       查尔斯·丹斯 Charles Dance
       弗莱迪·福克斯 Freddie Fox
       塔尼娅·雷诺兹 Tanya Reynolds
       彼得·麦克唐纳德 Peter McDonald
       佩里·菲茨帕特里克 Perry Fitzpatrick
       肯尼斯·克拉德 Kenneth Collard

◎标  签 英国 | 2019 | 名著改编 | 2019伦敦电影节 | FreddieFox | 英國電影 | UK | 历史

◎简  介

  Shooting has wrapped on Fanny Lye Deliver’d, a period drama starring Maxine Peake (The Theory of Everything), Charles Dance (Game of Thrones) and Freddie Fox (The Riot Club). The cast also includes Tanya Reynolds in her first feature film role and Peter McDonald (The Stag).
  
  Shot over ten weeks on location in Shropshire, England, the film is written and directed by Thomas Clay and produced by Zorana Piggott (Couple In A Hole), Rob Cannan (The Lovers and the Despot) and Philippe Bober. The late Joseph Lang, Clay’s long-time producer, receives a posthumous producing credit.
  
  Set in 1657 on an isolated farm in Shropshire, the story follows Fanny Lye (Peake) as she learns to transcend her oppressive marriage and discovers a new world of possibility.
  
  Living a life of puritan stricture with husband John Lye (Dance) and young son Arthur, Fanny Lye’s world is shaken by the unexpected arrival of two strangers in need - a young couple (Fox, Reynolds) closely pursued by a ruthless sheriff (McDonald) and his deputy.
  
  “Fanny Lye Deliver’d is a unique and compelling historical drama, closer in spirit to a western, or a modern thriller, than a traditional English period piece”, said producer Piggott.
  
  “First and foremost it is a gripping story, a simple, exciting narrative brought to life with incredibly powerful and compelling performances and Thomas’ unique vision.”
  
  It marks Clay’s third feature film. His debut, The Great Ecstasy of Robert Carmichael, screened at Cannes’ Critics’ Week in 2005 while his follow-up, Soi Cowboy, shot on location in Thailand, premiered at Cannes in Un Certain Regard in 2008.
  
  A Pull Back Camera production in co-production with Essential Filmproduktion (Germany), Fanny Lye Deliver’d is funded by the BFI, Creative England and the West Midlands Production Fund with support from Filmstiftung NRW, Medienboard Berlin Brandenburg and ZDF.
  
  Coproduction Office is handling world sales.

◎获奖情况

  第49届鹿特丹国际电影节 ?(2020)
  大银幕奖(提名) 托马斯·克雷
Video
ID                                       : 1
ID in the original source medium         : 4113 (0x1011)
Format                                   : HEVC
Format/Info                              : High Efficiency Video Coding
Format profile                           : Main @High
HDR format                               : SMPTE ST 2086, HDR10 compatible
Codec ID                                 : V_MPEGH/ISO/HEVC
Duration                                 : 2 h 9 min
Bit rate                                 : 58.7 Mb/s
Width                                    : 3 840 pixels
Height                                   : 2 160 pixels
Display aspect ratio                     : 16:9
Frame rate mode                          : Constant
Frame rate                               : 23.976 (24000/1001/189150) FPS
Color space                              : YUV
Chroma subsampling                       : 4:2:0 (Type 2)
Bit depth                                : 10 bits
Bits/(Pixel*Frame)                       : 0.295
Stream size                              : 53.1 GiB (93%)
Language                                 : English
Default                                  : No
Forced                                   : No
Color range                              : Limited
Color primaries                          : BT.2020
Transfer characteristics                 : PQ
Matrix coefficients                      : BT.2020 non-constant
Mastering display color primaries        : BT.2020
Mastering display luminance              : min: 0.0001 cd/m2, max: 1000 cd/m2
Original source medium                   : Blu-ray

Audio #1
ID                                       : 2
ID in the original source medium         : 4352 (0x1100)
Format                                   : DTS XLL
Format/Info                              : Digital Theater Systems
Commercial name                          : DTS-HD Master Audio
Codec ID                                 : A_DTS
Duration                                 : 2 h 9 min
Bit rate mode                            : Variable
Bit rate                                 : 3 455 kb/s
Channel(s)                               : 6 channels
Channel layout                           : C L R Ls Rs LFE
Sampling rate                            : 48.0 kHz
Frame rate                               : 93.750 FPS (512 SPF)
Bit depth                                : 24 bits
Compression mode                         : Lossless
Stream size                              : 3.13 GiB (5%)
Title                                    : DTS-HD MA 5.1
Language                                 : English
Default                                  : Yes
Forced                                   : No
Original source medium                   : Blu-ray

Audio #2
ID                                       : 3
Format                                   : AC-3
Format/Info                              : Audio Coding 3
Commercial name                          : Dolby Digital
Codec ID                                 : A_AC3
Duration                                 : 2 h 9 min
Bit rate mode                            : Constant
Bit rate                                 : 640 kb/s
Channel(s)                               : 6 channels
Channel layout                           : L R C LFE Ls Rs
Sampling rate                            : 48.0 kHz
Frame rate                               : 31.250 FPS (1536 SPF)
Compression mode                         : Lossy
Stream size                              : 593 MiB (1%)
Title                                    : DD 5.1
Language                                 : English
Service kind                             : Complete Main
Default                                  : No
Forced                                   : No

Audio #3
ID                                       : 4
ID in the original source medium         : 4353 (0x1101)
Format                                   : AC-3
Format/Info                              : Audio Coding 3
Commercial name                          : Dolby Digital
Codec ID                                 : A_AC3
Duration                                 : 2 h 9 min
Bit rate mode                            : Constant
Bit rate                                 : 384 kb/s
Channel(s)                               : 6 channels
Channel layout                           : L R C LFE Ls Rs
Sampling rate                            : 48.0 kHz
Frame rate                               : 31.250 FPS (1536 SPF)
Compression mode                         : Lossy
Stream size                              : 356 MiB (1%)
Title                                    : DD 5.1
Language                                 : English
Service kind                             : Complete Main
Default                                  : No
Forced                                   : No
Original source medium                   : Blu-ray

Text #1
ID                                       : 5
Format                                   : UTF-8
Codec ID                                 : S_TEXT/UTF8
Codec ID/Info                            : UTF-8 Plain Text
Duration                                 : 2 h 1 min
Bit rate                                 : 39 b/s
Count of elements                        : 1143
Stream size                              : 35.1 KiB (0%)
Title                                    : English-SRT
Language                                 : English
Default                                  : Yes
Forced                                   : No

Text #2
ID                                       : 6
ID in the original source medium         : 4768 (0x12A0)
Format                                   : PGS
Muxing mode                              : zlib
Codec ID                                 : S_HDMV/PGS
Codec ID/Info                            : Picture based subtitle format used on BDs/HD-DVDs
Duration                                 : 2 h 4 min
Bit rate                                 : 26.5 kb/s
Count of elements                        : 2472
Stream size                              : 23.5 MiB (0%)
Title                                    : English-PGS
Language                                 : English
Default                                  : No
Forced                                   : No
Original source medium                   : Blu-ray

Menu
00:00:00.000                             : en:Chapter 01
00:03:27.165                             : en:Chapter 02
00:09:14.804                             : en:Chapter 03
00:14:29.451                             : en:Chapter 04
00:20:14.379                             : en:Chapter 05
00:27:22.223                             : en:Chapter 06
00:34:35.823                             : en:Chapter 07
00:41:04.545                             : en:Chapter 08
00:46:07.639                             : en:Chapter 09
00:54:51.121                             : en:Chapter 10
01:07:40.681                             : en:Chapter 11
01:17:17.799                             : en:Chapter 12
01:23:08.274                             : en:Chapter 13
01:31:22.268                             : en:Chapter 14
01:35:18.379                             : en:Chapter 15
01:40:01.495                             : en:Chapter 16
01:45:29.072                             : en:Chapter 17
01:53:53.034                             : en:Chapter 18
01:58:26.432                             : en:Chapter 19
02:04:49.565                             : en:Chapter 20




                                                                                                                                                                                                        
                                                                                                                                                                                                                                                                                                                                                                                                                                                                                                                                                                                                                                                                                                                                                                                                                                                        
c173e2750594387403e6cf523ca56f5a.zip (143.57 KB, 下载次数: 0)

回复

使用道具 举报

小黑屋|西西论坛

本网站所有资源来自网络,如无意中侵犯了您的权益,请发邮件至 [email protected],立即清除相关链接

GMT+8, 2021-9-26 21:55 , Processed in 0.085328 second(s), 17 queries .

Powered by Discuz! X3.2

© 2001-2013 Comsenz Inc.

快速回复 返回顶部 返回列表