西西论坛

 找回密码
 立即注册
搜索

[BD-4K] 范妮·莱的解救 Fanny.Lye.Deliverd.2019.EXTENDED.2160p.UHD.BluRay.x265.10bit.HDR. ...

[复制链接]
电影首发 发表于 2021-4-4 07:44:58 | 显示全部楼层 |阅读模式
-->
帖子完整标题:范妮·莱的解救 Fanny.Lye.Deliverd.2019.EXTENDED.2160p.UHD.BluRay.x265.10bit.HDR.DTS-HD.MA.5.1-GUHZER 33.52GB



[/url]

◎译  名 范妮·莱的解救/The Delivered/范妮·莱德
◎片  名 Fanny Lye Deliver'd
◎年  代 2019
◎产  地 英国,德国
◎类  别 剧情 / 惊悚 / 历史
◎语  言 英语
◎上映日期 2019-10-10(伦敦电影节) / 2020-06-26(英国)
◎IMDb评分  6.2/10 from 851 users
◎  
◎豆瓣评分 6.4/10 from 108 users
◎ 
◎片  长 112分钟
◎导  演 托马斯·克雷 Thomas Clay
◎编  剧 托马斯·克雷 Thomas Clay
◎主  演 玛克辛·皮克 Maxine Peake
       查尔斯·丹斯 Charles Dance
       弗莱迪·福克斯 Freddie Fox
       塔尼娅·雷诺兹 Tanya Reynolds
       彼得·麦克唐纳德 Peter McDonald
       佩里·菲茨帕特里克 Perry Fitzpatrick
       肯尼斯·克拉德 Kenneth Collard

◎标  签 英国 | 2019 | 名著改编 | 2019伦敦电影节 | FreddieFox | 英國電影 | UK | 历史

◎简  介

  Shooting has wrapped on Fanny Lye Deliver’d, a period drama starring Maxine Peake (The Theory of Everything), Charles Dance (Game of Thrones) and Freddie Fox (The Riot Club). The cast also includes Tanya Reynolds in her first feature film role and Peter McDonald (The Stag).
  
  Shot over ten weeks on location in Shropshire, England, the film is written and directed by Thomas Clay and produced by Zorana Piggott (Couple In A Hole), Rob Cannan (The Lovers and the Despot) and Philippe Bober. The late Joseph Lang, Clay’s long-time producer, receives a posthumous producing credit.
  
  Set in 1657 on an isolated farm in Shropshire, the story follows Fanny Lye (Peake) as she learns to transcend her oppressive marriage and discovers a new world of possibility.
  
  Living a life of puritan stricture with husband John Lye (Dance) and young son Arthur, Fanny Lye’s world is shaken by the unexpected arrival of two strangers in need - a young couple (Fox, Reynolds) closely pursued by a ruthless sheriff (McDonald) and his deputy.
  
  “Fanny Lye Deliver’d is a unique and compelling historical drama, closer in spirit to a western, or a modern thriller, than a traditional English period piece”, said producer Piggott.
  
  “First and foremost it is a gripping story, a simple, exciting narrative brought to life with incredibly powerful and compelling performances and Thomas’ unique vision.”
  
  It marks Clay’s third feature film. His debut, The Great Ecstasy of Robert Carmichael, screened at Cannes’ Critics’ Week in 2005 while his follow-up, Soi Cowboy, shot on location in Thailand, premiered at Cannes in Un Certain Regard in 2008.
  
  A Pull Back Camera production in co-production with Essential Filmproduktion (Germany), Fanny Lye Deliver’d is funded by the BFI, Creative England and the West Midlands Production Fund with support from Filmstiftung NRW, Medienboard Berlin Brandenburg and ZDF.
  
  Coproduction Office is handling world sales.

◎获奖情况

  第49届鹿特丹国际电影节 ?(2020)
  大银幕奖(提名) 托马斯·克雷
Video
ID                                       : 1
Format                                   : HEVC
Format/Info                              : High Efficiency Video Coding
Format profile                           : Main @High
HDR format                               : SMPTE ST 2086, HDR10 compatible
Codec ID                                 : V_MPEGH/ISO/HEVC
Duration                                 : 2 h 9 min
Bit rate                                 : 33.5 Mb/s
Width                                    : 3 840 pixels
Height                                   : 1 606 pixels
Display aspect ratio                     : 2.40:1
Frame rate mode                          : Constant
Frame rate                               : 23.976 (24000/1001/189150) FPS
Color space                              : YUV
Chroma subsampling                       : 4:2:0 (Type 2)
Bit depth                                : 10 bits
Bits/(Pixel*Frame)                       : 0.226
Stream size                              : 30.3 GiB (90%)
Writing library                          : x265 3.5bf91444e0:[Windows][MSVC 1928][64 bit] 10bit
Encoding settings                        : cpuid=1111039 / frame-threads=4 / numa-pools=16 / wpp / no-pmode / no-pme / no-psnr / no-ssim / log-level=2 / input-csp=1 / input-res=3840x1606 / interlace=0 / total-frames=186319 / level-idc=51 / high-tier=1 / uhd-bd=0 / ref=4 / no-allow-non-conformance / repeat-headers / annexb / aud / no-eob / no-eos / hrd / info / hash=0 / no-temporal-layers / open-gop / min-keyint=23 / keyint=250 / gop-lookahead=0 / bframes=4 / b-adapt=2 / b-pyramid / bframe-bias=0 / rc-lookahead=25 / lookahead-slices=4 / scenecut=40 / hist-scenecut=0 / radl=0 / no-splice / no-intra-refresh / ctu=64 / min-cu-size=8 / rect / no-amp / max-tu-size=32 / tu-inter-depth=1 / tu-intra-depth=1 / limit-tu=0 / rdoq-level=2 / dynamic-rd=0.00 / no-ssim-rd / signhide / no-tskip / nr-intra=0 / nr-inter=0 / no-constrained-intra / strong-intra-smoothing / max-merge=3 / limit-refs=3 / limit-modes / me=3 / subme=3 / merange=57 / temporal-mvp / no-frame-dup / no-hme / weightp / no-weightb / no-analyze-src-pics / deblock=-3:-3 / no-sao / no-sao-non-deblock / rd=4 / selective-sao=0 / no-early-skip / rskip / no-fast-intra / no-tskip-fast / no-cu-lossless / no-b-intra / no-splitrd-skip / rdpenalty=0 / psy-rd=2.00 / psy-rdoq=1.00 / no-rd-refine / no-lossless / cbqpoffs=0 / crqpoffs=0 / rc=crf / crf=17.5 / qcomp=0.60 / qpstep=4 / stats-write=0 / stats-read=0 / vbv-maxrate=160000 / vbv-bufsize=160000 / vbv-init=0.9 / min-vbv-fullness=50.0 / max-vbv-fullness=80.0 / crf-max=0.0 / crf-min=0.0 / ipratio=1.40 / pbratio=1.30 / aq-mode=2 / aq-strength=1.00 / cutree / zone-count=0 / no-strict-cbr / qg-size=32 / no-rc-grain / qpmax=69 / qpmin=0 / no-const-vbv / sar=1 / overscan=0 / videoformat=5 / range=0 / colorprim=9 / transfer=16 / colormatrix=9 / chromaloc=1 / chromaloc-top=2 / chromaloc-bottom=2 / display-window=0 / master-display=G(8500,39850)B(6550,2300)R(35400,14600)WP(15635,16450)L(10000000,1) / cll=0,0 / min-luma=0 / max-luma=1023 / log2-max-poc-lsb=8 / vui-timing-info / vui-hrd-info / slices=1 / no-opt-qp-pps / no-opt-ref-list-length-pps / no-multi-pass-opt-rps / scenecut-bias=0.05 / hist-threshold=0.03 / no-opt-cu-delta-qp / no-aq-motion / hdr10 / hdr10-opt / no-dhdr10-opt / no-idr-recovery-sei / analysis-reuse-level=0 / analysis-save-reuse-level=0 / analysis-load-reuse-level=0 / scale-factor=0 / refine-intra=0 / refine-inter=0 / refine-mv=1 / refine-ctu-distortion=0 / no-limit-sao / ctu-info=0 / no-lowpass-dct / refine-analysis-type=0 / copy-pic=1 / max-ausize-factor=1.0 / no-dynamic-refine / no-single-sei / no-hevc-aq / no-svt / no-field / qp-adaptation-range=1.00 / scenecut-aware-qp=0conformance-window-offsets / right=0 / bottom=0 / decoder-max-rate=0 / no-vbv-live-multi-pass
Default                                  : Yes
Forced                                   : No
Color range                              : Limited
Color primaries                          : BT.2020
Transfer characteristics                 : PQ
Matrix coefficients                      : BT.2020 non-constant
Mastering display color primaries        : BT.2020
Mastering display luminance              : min: 0.0001 cd/m2, max: 1000 cd/m2

Audio #1
ID                                       : 2
Format                                   : DTS XLL
Format/Info                              : Digital Theater Systems
Commercial name                          : DTS-HD Master Audio
Codec ID                                 : A_DTS
Duration                                 : 2 h 9 min
Bit rate mode                            : Variable
Bit rate                                 : 3 455 kb/s
Channel(s)                               : 6 channels
Channel layout                           : C L R Ls Rs LFE
Sampling rate                            : 48.0 kHz
Frame rate                               : 93.750 FPS (512 SPF)
Bit depth                                : 24 bits
Compression mode                         : Lossless
Stream size                              : 3.13 GiB (9%)
Language                                 : English
Default                                  : Yes
Forced                                   : No

Audio #2
ID                                       : 3
Format                                   : AAC LC
Format/Info                              : Advanced Audio Codec Low Complexity
Codec ID                                 : A_AAC-2
Duration                                 : 2 h 9 min
Bit rate                                 : 122 kb/s
Channel(s)                               : 2 channels
Channel layout                           : L R
Sampling rate                            : 48.0 kHz
Frame rate                               : 46.875 FPS (1024 SPF)
Compression mode                         : Lossy
Delay relative to video                  : 20 ms
Stream size                              : 113 MiB (0%)
Title                                    : Commentary
Language                                 : English
Default                                  : No
Forced                                   : No

Text
ID                                       : 4
Format                                   : PGS
Muxing mode                              : zlib
Codec ID                                 : S_HDMV/PGS
Codec ID/Info                            : Picture based subtitle format used on BDs/HD-DVDs
Duration                                 : 2 h 4 min
Bit rate                                 : 26.5 kb/s
Count of elements                        : 2472
Stream size                              : 23.5 MiB (0%)
Title                                    : SDH
Language                                 : English
Default                                  : No
Forced                                   : No

Menu
00:00:00.000                             : :Chapter 01
00:03:27.290                             : :Chapter 02
00:09:14.804                             : :Chapter 03
00:14:29.452                             : :Chapter 04
00:20:14.380                             : :Chapter 05
00:27:22.307                             : :Chapter 06
00:34:35.824                             : :Chapter 07
00:41:04.545                             : :Chapter 08
00:46:07.640                             : :Chapter 09
00:54:51.121                             : :Chapter 10
01:07:40.682                             : :Chapter 11
01:17:17.800                             : :Chapter 12
01:23:08.275                             : :Chapter 13
01:31:22.268                             : :Chapter 14
01:35:18.379                             : :Chapter 15
01:40:01.495                             : :Chapter 16
01:45:29.073                             : :Chapter 17
01:53:53.035                             : :Chapter 18
01:58:26.433                             : :Chapter 19
02:04:49.565                             : :Chapter 20




                                                                                                                                                                                                        
                                                                                                                                                                                                                                                                                                                                                                                                                                                                                                                                                                                                                                                                                                                                                                                                                                                        
41068426174d18cde0e27b23470d93c2.zip (84.58 KB, 下载次数: 0)

回复

使用道具 举报

小黑屋|西西论坛

本网站所有资源来自网络,如无意中侵犯了您的权益,请发邮件至 [email protected],立即清除相关链接

GMT+8, 2021-9-26 21:18 , Processed in 0.114764 second(s), 17 queries .

Powered by Discuz! X3.2

© 2001-2013 Comsenz Inc.

快速回复 返回顶部 返回列表