西西论坛

 找回密码
 立即注册
搜索

[BD-4K] 克隆人/复制人 Replicas.2018.2160p.WEB-DL.x265.10bit.HDR.DTS-HD.MA.5.1-SWTYBLZ 13 ...

[复制链接]
电影首发 发表于 2021-4-4 07:44:58 | 显示全部楼层 |阅读模式
-->
帖子完整标题:克隆人/复制人 Replicas.2018.2160p.WEB-DL.x265.10bit.HDR.DTS-HD.MA.5.1-SWTYBLZ 13.78GB



[/url]

◎译  名 克隆人/复制人/复制品/复生人/捍卫生死线(台)
◎片  名 Replicas
◎年  代 2018
◎产  地 英国,中国大陆,波多黎各,美国
◎类  别 科幻 / 悬疑 / 犯罪
◎语  言 英语
◎上映日期 2018-11-23(中国大陆) / 2019-01-11(美国)
◎IMDb评分  5.5/10 from 33175 users
◎  
◎豆瓣评分 6.1/10 from 15107 users
◎ 
◎片  长 107分钟
◎导  演 杰弗利·纳赫马诺夫 Jeffrey Nachmanoff
◎编  剧 查德·圣·约翰 Chad St. John / 史蒂芬·哈梅尔 Stephen Hamel
◎主  演 基努·里维斯 Keanu Reeves
       爱丽丝·伊芙 Alice Eve
       艾米丽·阿琳·林德 Emily Alyn Lind
       托马斯·米德蒂奇 Thomas Middleditch
       恩杰伊·安东尼 Emjay Anthony
       约翰·奥提兹 John Ortiz
       尼亚切·海邓迪 Nyasha Hatendi
       艾莉亚·莱蕊克·勒布 Aria Lyric Leabu
       艾梅柏·里维拉 Amber Rivera
       艾梅柏·汤森 Amber Townsend
       杰弗里·霍尔斯曼 Jeffrey Holsman
       桑娴·洛格罗诺 Sunshine Logro?o
       奥马尔·克鲁兹·索托 Omar Cruz Soto
       伊万·J·托雷斯·拉桑塔 Iván J. Torres Lasanta
       让·皮埃尔·普拉茨 Jean Pierre Prats
       伊夫林·迪安-奥姆斯特德 Evelyn Dean-Olmsted

◎标  签 科幻 | 基努·李维斯 | 克隆 | 美国 | 伦理 | 2018 | AI | 惊悚

◎简  介

  供职于某生物科技公司的生物化学科学家威廉·福斯特(基努·里维斯 Keanu Reeves 饰),长久以来一直致力于克隆技术的研究。虽然科研的道路上困难重重,但他距离最终的成功似乎只有一步之遥。谁知就在关键时刻,一场车祸摧毁了他的幸福人生。车祸中,妻子莫娜(爱丽丝·伊芙 Alice Eve 饰)和三个可爱的孩子命归黄泉,这令威廉痛不欲生。然而,科学家的本能又促使他迅速冷静下来。他找到工作中的伙伴埃德·惠特尔(托马斯·米德蒂奇 Thomas Middleditch 饰)帮忙,决定利用自己的研究“复活”家人。
  
  爱让人疯狂,让人不惜一切代价与全世界对抗……
Video
ID                                       : 1
Format                                   : HEVC
Format/Info                              : High Efficiency Video Coding
Format profile                           : Main @Main
HDR format                               : SMPTE ST 2086, HDR10 compatible
Codec ID                                 : V_MPEGH/ISO/HEVC
Duration                                 : 1 h 47 min
Bit rate                                 : 14.6 Mb/s
Width                                    : 3 840 pixels
Height                                   : 2 160 pixels
Display aspect ratio                     : 16:9
Frame rate mode                          : Constant
Frame rate                               : 23.976 (24000/1001/189150) FPS
Original frame rate                      : 23.976 (23976/1000/189150) FPS
Color space                              : YUV
Chroma subsampling                       : 4:2:0 (Type 2)
Bit depth                                : 10 bits
Bits/(Pixel*Frame)                       : 0.073
Stream size                              : 11.0 GiB (80%)
Writing library                          : x265 3.0:[Linux][GCC 4.8.5][64 bit] 10bit
Encoding settings                        : cpuid=1111039 / frame-threads=6 / wpp / no-pmode / no-pme / no-psnr / no-ssim / log-level=2 / input-csp=1 / input-res=3840x2160 / interlace=0 / total-frames=0 / level-idc=50 / high-tier=1 / uhd-bd=0 / ref=3 / no-allow-non-conformance / repeat-headers / annexb / no-aud / no-hrd / info / hash=0 / no-temporal-layers / no-open-gop / min-keyint=48 / keyint=48 / gop-lookahead=0 / bframes=4 / b-adapt=2 / b-pyramid / bframe-bias=0 / rc-lookahead=48 / lookahead-slices=4 / scenecut=40 / radl=0 / no-splice / no-intra-refresh / ctu=64 / min-cu-size=8 / rect / no-amp / max-tu-size=32 / tu-inter-depth=1 / tu-intra-depth=1 / limit-tu=0 / rdoq-level=2 / dynamic-rd=0.00 / no-ssim-rd / signhide / no-tskip / nr-intra=0 / nr-inter=0 / no-constrained-intra / strong-intra-smoothing / max-merge=3 / limit-refs=3 / limit-modes / me=2 / subme=3 / merange=57 / temporal-mvp / weightp / no-weightb / no-analyze-src-pics / deblock=0:0 / no-sao / no-sao-non-deblock / rd=4 / no-early-skip / no-rskip / no-fast-intra / no-tskip-fast / no-cu-lossless / no-b-intra / no-splitrd-skip / rdpenalty=0 / psy-rd=4.00 / psy-rdoq=10.00 / no-rd-refine / no-lossless / cbqpoffs=0 / crqpoffs=0 / rc=abr / bitrate=15000 / qcomp=0.60 / qpstep=1 / stats-write=0 / stats-read=0 / vbv-maxrate=22500 / vbv-bufsize=22500 / vbv-init=0.9 / ipratio=1.10 / pbratio=1.00 / aq-mode=0 / aq-strength=0.00 / no-cutree / zone-count=0 / no-strict-cbr / qg-size=32 / rc-grain / qpmax=69 / qpmin=0 / const-vbv / sar=1 / overscan=0 / videoformat=5 / range=0 / colorprim=9 / transfer=16 / colormatrix=9 / chromaloc=1 / chromaloc-top=2 / chromaloc-bottom=2 / display-window=0 / master-display=G(13250,34500)B(7500,3000)R(34000,16000)WP(15635,16450)L(10000000,10) / max-cll=1001,417 / min-luma=0 / max-luma=1023 / log2-max-poc-lsb=8 / vui-timing-info / vui-hrd-info / slices=1 / no-opt-qp-pps / no-opt-ref-list-length-pps / no-multi-pass-opt-rps / scenecut-bias=0.05 / no-opt-cu-delta-qp / no-aq-motion / hdr / no-hdr-opt / no-dhdr10-opt / no-idr-recovery-sei / analysis-reuse-level=5 / scale-factor=0 / refine-intra=0 / refine-inter=0 / refine-mv=0 / refine-ctu-distortion=0 / no-limit-sao / ctu-info=0 / no-lowpass-dct / refine-analysis-type=0 / copy-pic=1 / max-ausize-factor=1.0 / no-dynamic-refine / no-single-sei / no-hevc-aq / qp-adaptation-range=1.00
Default                                  : Yes
Forced                                   : No
Color range                              : Limited
Color primaries                          : BT.2020
Transfer characteristics                 : PQ
Matrix coefficients                      : BT.2020 non-constant
Mastering display color primaries        : Display P3
Mastering display luminance              : min: 0.0010 cd/m2, max: 1000 cd/m2
Maximum Content Light Level              : 1001 cd/m2
Maximum Frame-Average Light Level        : 417 cd/m2

Audio #1
ID                                       : 2
ID in the original source medium         : 4352 (0x1100)
Format                                   : DTS XLL
Format/Info                              : Digital Theater Systems
Commercial name                          : DTS-HD Master Audio
Codec ID                                 : A_DTS
Duration                                 : 1 h 47 min
Bit rate mode                            : Variable
Bit rate                                 : 3 417 kb/s
Channel(s)                               : 6 channels
Channel layout                           : C L R Ls Rs LFE
Sampling rate                            : 48.0 kHz
Frame rate                               : 93.750 FPS (512 SPF)
Bit depth                                : 24 bits
Compression mode                         : Lossless
Stream size                              : 2.58 GiB (19%)
Title                                    : DTS-HD MA 5.1
Language                                 : English
Default                                  : Yes
Forced                                   : No
Original source medium                   : Blu-ray

Audio #2
ID                                       : 3
Format                                   : E-AC-3
Format/Info                              : Enhanced AC-3
Commercial name                          : Dolby Digital Plus
Codec ID                                 : A_EAC3
Duration                                 : 1 h 47 min
Bit rate mode                            : Constant
Bit rate                                 : 256 kb/s
Channel(s)                               : 6 channels
Channel layout                           : L R C LFE Ls Rs
Sampling rate                            : 48.0 kHz
Frame rate                               : 31.250 FPS (1536 SPF)
Compression mode                         : Lossy
Stream size                              : 198 MiB (1%)
Title                                    : DDP 5.1
Language                                 : English
Service kind                             : Complete Main
Default                                  : No
Forced                                   : No

Text #1
ID                                       : 4
Format                                   : UTF-8
Codec ID                                 : S_TEXT/UTF8
Codec ID/Info                            : UTF-8 Plain Text
Duration                                 : 1 h 35 min
Bit rate                                 : 50 b/s
Count of elements                        : 1237
Stream size                              : 35.6 KiB (0%)
Title                                    : SRT
Language                                 : English
Default                                  : Yes
Forced                                   : No

Text #2
ID                                       : 5
ID in the original source medium         : 4608 (0x1200)
Format                                   : PGS
Muxing mode                              : zlib
Codec ID                                 : S_HDMV/PGS
Codec ID/Info                            : Picture based subtitle format used on BDs/HD-DVDs
Duration                                 : 1 h 46 min
Bit rate                                 : 32.9 kb/s
Count of elements                        : 2424
Stream size                              : 25.0 MiB (0%)
Language                                 : English
Default                                  : No
Forced                                   : No
Original source medium                   : Blu-ray

Text #3
ID                                       : 6
ID in the original source medium         : 4609 (0x1201)
Format                                   : PGS
Muxing mode                              : zlib
Codec ID                                 : S_HDMV/PGS
Codec ID/Info                            : Picture based subtitle format used on BDs/HD-DVDs
Duration                                 : 1 h 36 min
Bit rate                                 : 25.3 kb/s
Count of elements                        : 1852
Stream size                              : 17.4 MiB (0%)
Language                                 : Spanish
Default                                  : No
Forced                                   : No
Original source medium                   : Blu-ray

Menu
00:00:00.000                             : en:Chapter 01
00:08:13.576                             : en:Chapter 02
00:12:56.317                             : en:Chapter 03
00:17:59.620                             : en:Chapter 04
00:25:29.069                             : en:Chapter 05
00:32:38.873                             : en:Chapter 06
00:39:15.895                             : en:Chapter 07
00:44:43.389                             : en:Chapter 08
00:52:44.411                             : en:Chapter 09
00:58:47.106                             : en:Chapter 10
01:04:14.141                             : en:Chapter 11
01:10:30.226                             : en:Chapter 12
01:19:17.502                             : en:Chapter 13
01:24:23.558                             : en:Chapter 14
01:31:42.830                             : en:Chapter 15
01:35:08.035                             : en:Chapter 16




                                                                                                                                                                                                        
                                                                                                                                                                                                                                                                                                                                                                                                                                                                                                                                                                                                                                                                                                                                                                                                                                                        
97811ba05e897c2fe69a7cd0f1c3d7be.zip (69.62 KB, 下载次数: 0)

回复

使用道具 举报

小黑屋|西西论坛

本网站所有资源来自网络,如无意中侵犯了您的权益,请发邮件至 [email protected],立即清除相关链接

GMT+8, 2021-9-26 21:05 , Processed in 0.130921 second(s), 17 queries .

Powered by Discuz! X3.2

© 2001-2013 Comsenz Inc.

快速回复 返回顶部 返回列表