西西论坛

 找回密码
 立即注册
搜索

[BD-4K] 超级智能 Superintelligence.2020.2160p.WEB-DL.x265.10bit.HDR10Plus.DDP5.1-ROCCaT ...

[复制链接]
电影首发 发表于 2021-4-2 10:27:07 | 显示全部楼层 |阅读模式
-->
帖子完整标题:超级智能 Superintelligence.2020.2160p.WEB-DL.x265.10bit.HDR10Plus.DDP5.1-ROCCaT 8.61GB



[/url]

◎译  名 超级智能
◎片  名 Super-Intelligence
◎年  代 2020
◎产  地 美国
◎类  别 喜剧 / 动作
◎语  言 英语
◎上映日期 2020-11-26(美国)
◎IMDb评分  5.4/10 from 5976 users
◎  
◎豆瓣评分 5.4/10 from 248 users
◎ 
◎导  演 本·法尔科内 Ben Falcone
◎编  剧 史蒂夫·马洛 Steve Mallory
◎主  演 梅丽莎·麦卡西 Melissa McCarthy
       詹姆斯·柯登 James Corden
       鲍比·坎纳瓦尔 Bobby Cannavale
       布莱恩·泰里·亨利 Brian Tyree Henry
       珍·斯马特 Jean Smart
       卡兰·索尼 Karan Soni
       莎拉·贝克 Sarah Baker
       朱万达斯·坎迪斯 Jwaundace Candece
       迈克尔·比奇 Michael Beach
       乌斯曼·阿利 Usman Ally
       山姆·理查森 Sam Richardson
       安德鲁·T·李 Andrew T. Lee
       施奎塔·詹姆斯 Shiquita James
       艾琳·法萨诺 Erin Fasano
       麦克斯威尔·海史密斯 Maxwell Highsmith
       帕蒂·舍尔哈斯 Patti Schellhaas
       Tina Witherby
       查尔斯·格林 Charles Green
       何塞·阿尔弗雷多·费尔南德斯 José Alfredo Fernandez
       保罗·皮尔斯伯里 Paul Pillsbury

◎标  签 喜剧 | 科幻 | 美国 | 2020 | 梅丽莎·麦卡西 | 美国电影 | 电影 | 詹姆斯·柯登

◎简  介

  梅丽莎·麦卡西将主演动作喜剧《超级智能》(Super-Intelligence),麦卡西丈夫本·法尔科内执导,这是两人自《塔米的旅行》《老板》《派对主角》后第四次以演员-导演身份合作。麦卡西饰演前企业高管Carol Peters,当她被世界上第一个超级智能——一个可能掌控世界的人工智能选中作为观察目标后,她的生活发生翻天覆地的变化。Steve Mallory(《老板》)编写剧本,7月开拍,新线出品。
Video
ID                                       : 1
Format                                   : HEVC
Format/Info                              : High Efficiency Video Coding
Format profile                           : Main @Main
HDR format                               : SMPTE ST 2094 App 4, Version 1, HDR10+ Profile B compatible
Codec ID                                 : V_MPEGH/ISO/HEVC
Duration                                 : 1 h 45 min
Bit rate                                 : 11.4 Mb/s
Width                                    : 3 840 pixels
Height                                   : 2 160 pixels
Display aspect ratio                     : 16:9
Frame rate mode                          : Constant
Frame rate                               : 23.976 (23976/1000/189150) FPS
Color space                              : YUV
Chroma subsampling                       : 4:2:0
Bit depth                                : 10 bits
Bits/(Pixel*Frame)                       : 0.057
Stream size                              : 8.42 GiB (98%)
Writing library                          : x265 3.4:[Linux][GCC 6.3.0][64 bit] 10bit
Encoding settings                        : cpuid=1111039 / frame-threads=3 / wpp / no-pmode / no-pme / no-psnr / no-ssim / log-level=2 / input-csp=1 / input-res=3840x2160 / interlace=0 / total-frames=0 / level-idc=51 / high-tier=1 / uhd-bd=0 / ref=4 / no-allow-non-conformance / repeat-headers / annexb / no-aud / no-hrd / info / hash=0 / no-temporal-layers / no-open-gop / min-keyint=24 / keyint=48 / gop-lookahead=0 / bframes=3 / b-adapt=0 / no-b-pyramid / bframe-bias=0 / rc-lookahead=15 / lookahead-slices=8 / scenecut=0 / radl=0 / no-splice / no-intra-refresh / ctu=64 / min-cu-size=8 / no-rect / no-amp / max-tu-size=32 / tu-inter-depth=1 / tu-intra-depth=1 / limit-tu=0 / rdoq-level=0 / dynamic-rd=0.00 / no-ssim-rd / signhide / no-tskip / nr-intra=0 / nr-inter=0 / no-constrained-intra / strong-intra-smoothing / max-merge=2 / limit-refs=3 / no-limit-modes / me=1 / subme=2 / merange=57 / temporal-mvp / weightp / no-weightb / no-analyze-src-pics / deblock=0:0 / sao / no-sao-non-deblock / rd=2 / no-early-skip / rskip / fast-intra / no-tskip-fast / no-cu-lossless / no-b-intra / no-splitrd-skip / rdpenalty=0 / psy-rd=2.00 / psy-rdoq=0.00 / no-rd-refine / no-lossless / cbqpoffs=0 / crqpoffs=0 / rc=cbr / bitrate=11440 / qcomp=0.60 / qpstep=4 / stats-write=0 / stats-read=0 / vbv-maxrate=11440 / vbv-bufsize=22440 / vbv-init=0.9 / ipratio=1.40 / pbratio=1.30 / aq-mode=2 / aq-strength=1.00 / cutree / zone-count=0 / no-strict-cbr / qg-size=32 / no-rc-grain / qpmax=69 / qpmin=0 / no-const-vbv / sar=1 / overscan=0 / videoformat=5 / range=0 / colorprim=9 / transfer=16 / colormatrix=9 / chromaloc=0 / display-window=0 / master-display=G(13250,34500)B(7500,3000)R(34000,16000)WP(15635,16450)L(40000000,50) / max-cll=829,93 / min-luma=0 / max-luma=1023 / log2-max-poc-lsb=8 / vui-timing-info / vui-hrd-info / slices=1 / no-opt-qp-pps / no-opt-ref-list-length-pps / no-multi-pass-opt-rps / scenecut-bias=0.05 / no-opt-cu-delta-qp / no-aq-motion / hdr / no-hdr-opt / no-dhdr10-opt / no-idr-recovery-sei / analysis-reuse-level=5 / scale-factor=0 / refine-intra=0 / refine-inter=0 / refine-mv=0 / refine-ctu-distortion=0 / no-limit-sao / ctu-info=0 / no-lowpass-dct / refine-analysis-type=0 / copy-pic=1 / max-ausize-factor=1.0 / no-dynamic-refine / no-single-sei / no-hevc-aq / qp-adaptation-range=1.00
Default                                  : Yes
Forced                                   : No
Color range                              : Limited
Color primaries                          : BT.2020
Transfer characteristics                 : PQ
Matrix coefficients                      : BT.2020 non-constant
Mastering display color primaries        : Display P3
Mastering display luminance              : min: 0.0050 cd/m2, max: 4000 cd/m2
Maximum Content Light Level              : 829 cd/m2
Maximum Frame-Average Light Level        : 93 cd/m2

Audio
ID                                       : 2
Format                                   : E-AC-3
Format/Info                              : Enhanced AC-3
Commercial name                          : Dolby Digital Plus
Codec ID                                 : A_EAC3
Duration                                 : 1 h 45 min
Bit rate mode                            : Constant
Bit rate                                 : 256 kb/s
Channel(s)                               : 6 channels
Channel layout                           : L R C LFE Ls Rs
Sampling rate                            : 48.0 kHz
Frame rate                               : 31.250 FPS (1536 SPF)
Compression mode                         : Lossy
Stream size                              : 194 MiB (2%)
Language                                 : English
Service kind                             : Complete Main
Default                                  : Yes
Forced                                   : No

Text #1
ID                                       : 3
Format                                   : UTF-8
Codec ID                                 : S_TEXT/UTF8
Codec ID/Info                            : UTF-8 Plain Text
Duration                                 : 1 h 44 min
Bit rate                                 : 92 b/s
Count of elements                        : 1562
Stream size                              : 70.8 KiB (0%)
Language                                 : German
Default                                  : No
Forced                                   : No

Text #2
ID                                       : 4
Format                                   : UTF-8
Codec ID                                 : S_TEXT/UTF8
Codec ID/Info                            : UTF-8 Plain Text
Duration                                 : 1 h 44 min
Bit rate                                 : 99 b/s
Count of elements                        : 2126
Stream size                              : 75.8 KiB (0%)
Language                                 : French
Default                                  : No
Forced                                   : No

Text #3
ID                                       : 5
Format                                   : UTF-8
Codec ID                                 : S_TEXT/UTF8
Codec ID/Info                            : UTF-8 Plain Text
Duration                                 : 1 h 44 min
Bit rate                                 : 96 b/s
Count of elements                        : 2144
Stream size                              : 74.0 KiB (0%)
Language                                 : Hungarian
Default                                  : No
Forced                                   : No

Text #4
ID                                       : 6
Format                                   : UTF-8
Codec ID                                 : S_TEXT/UTF8
Codec ID/Info                            : UTF-8 Plain Text
Duration                                 : 1 h 44 min
Bit rate                                 : 70 b/s
Count of elements                        : 1281
Stream size                              : 54.3 KiB (0%)
Language                                 : Dutch
Default                                  : No
Forced                                   : No

Text #5
ID                                       : 7
Format                                   : UTF-8
Codec ID                                 : S_TEXT/UTF8
Codec ID/Info                            : UTF-8 Plain Text
Duration                                 : 1 h 44 min
Bit rate                                 : 71 b/s
Count of elements                        : 2051
Stream size                              : 54.8 KiB (0%)
Language                                 : Polish
Default                                  : No
Forced                                   : No

Text #6
ID                                       : 8
Format                                   : UTF-8
Codec ID                                 : S_TEXT/UTF8
Codec ID/Info                            : UTF-8 Plain Text
Duration                                 : 1 h 44 min
Bit rate                                 : 89 b/s
Count of elements                        : 2138
Stream size                              : 68.9 KiB (0%)
Language                                 : Portuguese
Default                                  : No
Forced                                   : No




                                                                                                                                                                                                        
                                                                                                                                                                                                                                                                                                                                                                                                                                                                                                                                                                                                                                                                                                                                                                                                                                                        
6efb61c0c49da3959ce7e857155a0e37.zip (43.79 KB, 下载次数: 0)

回复

使用道具 举报

小黑屋|西西论坛

本网站所有资源来自网络,如无意中侵犯了您的权益,请发邮件至 [email protected],立即清除相关链接

GMT+8, 2021-9-26 20:21 , Processed in 0.118764 second(s), 17 queries .

Powered by Discuz! X3.2

© 2001-2013 Comsenz Inc.

快速回复 返回顶部 返回列表