西西论坛

 找回密码
 立即注册
搜索

[BD-4K] 圣诞星 The.Star.2017.2160p.AMZN.WEB-DL.x265.10bit.HDR10Plus.DTS-HD.MA.5.1-SWTYBL ...

[复制链接]
电影首发 发表于 2021-4-2 10:27:07 | 显示全部楼层 |阅读模式
-->
帖子完整标题:圣诞星 The.Star.2017.2160p.AMZN.WEB-DL.x265.10bit.HDR10Plus.DTS-HD.MA.5.1-SWTYBLZ 10.77GB



[/url]

◎译  名 圣诞星/The Lamb/羔羊
◎片  名 The Star
◎年  代 2017
◎产  地 美国
◎类  别 喜剧 / 动画 / 冒险
◎语  言 英语
◎上映日期 2017-11-17(美国)
◎IMDb评分  6.3/10 from 7009 users
◎  
◎豆瓣评分 6.4/10 from 408 users
◎ 
◎片  长 86分钟
◎导  演 蒂莫西·锐科特 Timothy Reckart
◎编  剧 卡洛斯·科特金 Carlos Kotkin / 西蒙·摩尔 Simon Moore
◎主  演 史蒂文·元 Steven Yeun
       科甘-迈克尔·凯 Keegan-Michael Key
       艾迪·布莱恩特 Aidy Bryant
       吉娜·罗德里格兹 Gina Rodriguez
       扎克瑞·莱维 Zachary Levi
       克里斯托弗·普卢默 Christopher Plummer
       文·瑞姆斯 Ving Rhames
       加布里埃尔·伊格莱西亚斯 Gabriel Iglesias
       凯莉·克拉克森 Kelly Clarkson
       安东尼·安德森 Anthony Anderson
       帕翠西亚·希顿 Patricia Heaton
       克里斯·克里斯托佛森 Kris Kristofferson
       克里斯汀·肯诺恩斯 Kristin Chenoweth
       玛丽亚·凯莉 Mariah Carey
       奥普拉·温弗瑞 Oprah Winfrey
       泰勒·派瑞 Tyler Perry
       崔西·摩根 Tracy Morgan
       乔尔·欧斯汀 Joel Osteen
       黛利拉 Delilah
       乔尔·麦克拉里 Joel McCrary
       菲尔·莫里斯 Phil Morris
       弗雷德·塔特西奥 Fred Tatasciore
       莱克斯·朗 Lex Lang
       罗杰·克莱格·史密斯 Roger Craig Smith
       乔·怀特 Joe Whyte
       威廉·汤森 William Townsend
       格雷格·白尔杰 Gregg Berger
       梅利莎·斯特姆 Melissa Sturm

◎标  签 动画 | 美国 | 宗教 | 耶稣降生 | 喜剧 | 2017 | 萌萌的小驴 | 索尼

◎简  介

  “The Star”只是个工作代号,并不是这部影片的正式片名。该片原名《羔羊》(The Lamb),由奥斯卡提名动画短片《头朝下的生活》(Head Over Heels)导演蒂莫西·雷克阿特(Timothy Reckart)执导,以一头勇敢的小驴子和他的动物伙伴为主角,从他们的角度描述了耶稣降生的故事。以布偶电影而著称的吉姆·汉森公司(The Jim Henson Company)将和索尼动画一起制作本片。

◎获奖情况

  第75届金球奖 ?(2018)
  电影类最佳原创歌曲(提名)
  
  第45届动画安妮奖 ?(2018)
  最佳剪辑(提名) 帕姆·齐根哈根
  最佳分镜(提名) 路易·德尔·卡门
Video
ID                                       : 1
Format                                   : HEVC
Format/Info                              : High Efficiency Video Coding
Format profile                           : Main @Main
HDR format                               : SMPTE ST 2094 App 4, Version 1, HDR10+ Profile B compatible
Codec ID                                 : V_MPEGH/ISO/HEVC
Duration                                 : 1 h 26 min
Bit rate                                 : 14.9 Mb/s
Width                                    : 3 840 pixels
Height                                   : 2 080 pixels
Display aspect ratio                     : 1.85:1
Frame rate mode                          : Constant
Frame rate                               : 23.976 (24000/1001/189150) FPS
Color space                              : YUV
Chroma subsampling                       : 4:2:0
Bit depth                                : 10 bits
Bits/(Pixel*Frame)                       : 0.078
Stream size                              : 8.97 GiB (83%)
Default                                  : Yes
Forced                                   : No
Color range                              : Limited
Color primaries                          : BT.2020
Transfer characteristics                 : PQ
Matrix coefficients                      : BT.2020 non-constant
Mastering display color primaries        : Display P3
Mastering display luminance              : min: 0.0050 cd/m2, max: 4000 cd/m2
Maximum Content Light Level              : 4000 cd/m2
Maximum Frame-Average Light Level        : 870 cd/m2

Audio #1
ID                                       : 2
Format                                   : DTS XLL
Format/Info                              : Digital Theater Systems
Commercial name                          : DTS-HD Master Audio
Codec ID                                 : A_DTS
Duration                                 : 1 h 26 min
Bit rate mode                            : Variable
Bit rate                                 : 2 229 kb/s
Channel(s)                               : 6 channels
Channel layout                           : C L R Ls Rs LFE
Sampling rate                            : 48.0 kHz
Frame rate                               : 93.750 FPS (512 SPF)
Bit depth                                : 16 bits
Compression mode                         : Lossless
Stream size                              : 1.34 GiB (12%)
Title                                    : DTS-HD MA 5.1
Language                                 : English
Default                                  : Yes
Forced                                   : No

Audio #2
ID                                       : 3
Format                                   : AC-3
Format/Info                              : Audio Coding 3
Commercial name                          : Dolby Digital
Codec ID                                 : A_AC3
Duration                                 : 1 h 26 min
Bit rate mode                            : Constant
Bit rate                                 : 640 kb/s
Channel(s)                               : 6 channels
Channel layout                           : L R C LFE Ls Rs
Sampling rate                            : 48.0 kHz
Frame rate                               : 31.250 FPS (1536 SPF)
Compression mode                         : Lossy
Stream size                              : 394 MiB (4%)
Title                                    : DD 5.1
Language                                 : English
Service kind                             : Complete Main
Default                                  : No
Forced                                   : No

Text #1
ID                                       : 4
Format                                   : UTF-8
Codec ID                                 : S_TEXT/UTF8
Codec ID/Info                            : UTF-8 Plain Text
Duration                                 : 1 h 23 min
Bit rate                                 : 70 b/s
Count of elements                        : 1425
Stream size                              : 43.3 KiB (0%)
Title                                    : SRT
Language                                 : English
Default                                  : Yes
Forced                                   : No

Text #2
ID                                       : 5
Format                                   : PGS
Muxing mode                              : zlib
Codec ID                                 : S_HDMV/PGS
Codec ID/Info                            : Picture based subtitle format used on BDs/HD-DVDs
Duration                                 : 1 h 18 min
Bit rate                                 : 51.2 kb/s
Count of elements                        : 2570
Stream size                              : 28.8 MiB (0%)
Language                                 : English
Default                                  : No
Forced                                   : No

Text #3
ID                                       : 6
Format                                   : PGS
Muxing mode                              : zlib
Codec ID                                 : S_HDMV/PGS
Codec ID/Info                            : Picture based subtitle format used on BDs/HD-DVDs
Duration                                 : 1 h 24 min
Bit rate                                 : 60.5 kb/s
Count of elements                        : 3286
Stream size                              : 36.4 MiB (0%)
Title                                    : SDH
Language                                 : English
Default                                  : No
Forced                                   : No

Text #4
ID                                       : 7
Format                                   : PGS
Muxing mode                              : zlib
Codec ID                                 : S_HDMV/PGS
Codec ID/Info                            : Picture based subtitle format used on BDs/HD-DVDs
Duration                                 : 1 h 26 min
Bit rate                                 : 36.9 kb/s
Count of elements                        : 2244
Stream size                              : 22.7 MiB (0%)
Language                                 : French
Default                                  : No
Forced                                   : No

Text #5
ID                                       : 8
Format                                   : PGS
Muxing mode                              : zlib
Codec ID                                 : S_HDMV/PGS
Codec ID/Info                            : Picture based subtitle format used on BDs/HD-DVDs
Duration                                 : 1 h 26 min
Bit rate                                 : 43.7 kb/s
Count of elements                        : 2302
Stream size                              : 26.9 MiB (0%)
Title                                    : Latin American
Language                                 : Spanish
Default                                  : No
Forced                                   : No

Text #6
ID                                       : 9
Format                                   : PGS
Muxing mode                              : zlib
Codec ID                                 : S_HDMV/PGS
Codec ID/Info                            : Picture based subtitle format used on BDs/HD-DVDs
Duration                                 : 1 h 24 min
Bit rate                                 : 84.2 kb/s
Count of elements                        : 3566
Stream size                              : 50.6 MiB (0%)
Title                                    : Commentary by director Timothy Reckart and executive producer DeVon Franlkin
Language                                 : English
Default                                  : No
Forced                                   : No

Menu
00:00:00.000                             : en:Chapter 1
00:04:20.385                             : en:Chapter 2
00:08:07.112                             : en:Chapter 3
00:13:11.290                             : en:Chapter 4
00:18:07.753                             : en:Chapter 5
00:21:29.246                             : en:Chapter 6
00:25:59.224                             : en:Chapter 7
00:30:26.825                             : en:Chapter 8
00:34:41.997                             : en:Chapter 9
00:39:09.722                             : en:Chapter 10
00:47:09.910                             : en:Chapter 11
00:52:29.772                             : en:Chapter 12
00:57:39.414                             : en:Chapter 13
01:04:37.874                             : en:Chapter 14
01:09:35.171                             : en:Chapter 15
01:13:40.875                             : en:Chapter 16




                                                                                                                                                                                                        
                                                                                                                                                                                                                                                                                                                                                                                                                                                                                                                                                                                                                                                                                                                                                                                                                                                        
51aa39408f167daf855f3cbef19e9b4e.zip (54.58 KB, 下载次数: 0)

回复

使用道具 举报

小黑屋|西西论坛

本网站所有资源来自网络,如无意中侵犯了您的权益,请发邮件至 [email protected],立即清除相关链接

GMT+8, 2021-9-26 20:11 , Processed in 0.103990 second(s), 17 queries .

Powered by Discuz! X3.2

© 2001-2013 Comsenz Inc.

快速回复 返回顶部 返回列表